<?xml version="1.0" standalone="no"?>
<!DOCTYPE svg PUBLIC "-//W3C//DTD SVG 1.1//EN" "http://www.w3.org/Graphics/SVG/1.1/DTD/svg11.dtd" >
<svg xmlns="http://www.w3.org/2000/svg">
<metadata>Generated by IcoMoon</metadata>
<defs>
<font id="icomoon" horiz-adv-x="1024">
<font-face units-per-em="1024" ascent="1024" descent="0" />
<missing-glyph horiz-adv-x="1024" />
<glyph unicode="&#x20;" horiz-adv-x="0" d="" />
<glyph unicode="&#x41;" glyph-name="logo_square" d="M680.968 0c0 0-337.744 0-337.744 0-88.608 0.096-173.536 35.968-236.192 99.728s-97.904 150.192-98.032 240.368c0 0 0 343.744 0 343.744 0.112 90.192 35.344 176.656 98 240.416 62.656 63.776 147.616 99.648 236.224 99.744 0 0 337.744 0 337.744 0 88.592-0.112 173.536-36 236.176-99.76 62.656-63.776 97.888-150.224 97.984-240.4 0 0 0-343.744 0-343.744-0.096-90.16-35.344-176.608-97.984-240.368s-147.584-99.632-236.176-99.728c0 0 0 0 0 0M343.224 1005.824c-83.856-0.096-164.256-34.048-223.536-94.416-59.296-60.368-92.608-142.208-92.656-227.568 0 0 0-343.744 0-343.744 0.064-85.344 33.392-167.168 92.672-227.52s139.664-94.304 223.52-94.4c0 0 337.744 0 337.744 0 83.872 0.064 164.288 34 223.584 94.352 59.312 60.368 92.656 142.208 92.704 227.568 0 0 0 343.744 0 343.744-0.080 85.344-33.44 167.168-92.736 227.504s-139.696 94.256-223.552 94.304c0 0-337.744 0.176-337.744 0.176s0 0 0 0M82.856 644.608c0 0 44.8 0 44.8 0s0-38.688 0-38.688c0 0-44.8 0-44.8 0s0 38.688 0 38.688c0 0 0 0 0 0M82.856 587.248c0 0 44.8 0 44.8 0s0-171.152 0-171.152c0 0-44.736 0-44.736 0s-0.064 171.152-0.064 171.152c0 0 0 0 0 0M314.792 524.576c0 0 0-108.496 0-108.496s-44.8 0-44.8 0c0 0 0 98.272 0 98.272 0 24.48-11.184 38.128-30.192 38.128-5.072 0.16-10.112-0.736-14.832-2.608-4.704-1.888-9.008-4.72-12.624-8.336-3.6-3.616-6.464-7.936-8.384-12.704-1.936-4.768-2.896-9.888-2.816-15.040 0 0 0-97.712 0-97.712s-44.752 0-44.752 0c0 0 0 171.328 0 171.328s40.288 0 40.288 0c0 0 1.696-23.936 1.696-23.936 6.704 8.512 15.248 15.344 24.944 19.984s20.32 6.976 31.024 6.832c35.792-0.176 60.448-26.432 60.448-65.712 0 0 0 0 0 0M479.736 454.496c0 0 0-38.416 0-38.416s-146.080 0-146.080 0c0.016 0 0.016 34.16 0.016 34.16s88.016 99.424 88.016 99.424c0 0-82.976 0-82.976 0s0 37.744 0 37.744c0 0 139.936 0 139.936 0s0-34.16 0-34.16c0 0-87.312-98.752-87.312-98.752s88.4 0 88.4 0c0 0 0 0 0 0M656.776 524.576c0 0 0-108.48 0-108.48 0-0.016-45.024-0.016-45.024-0.016s0 98.272 0 98.272c0 24.48-11.776 38.128-30.24 38.128-5.056 0.144-10.096-0.752-14.8-2.624-4.72-1.888-9.008-4.72-12.608-8.336-3.616-3.616-6.464-7.936-8.384-12.704-1.92-4.752-2.88-9.872-2.816-15.024 0 0 0-97.712 0-97.712 0 0.016-44.576 0.016-44.576 0.016s0 228.128 0 228.128c0 0 44.8 0 44.8 0s0-77.376 0-77.376c6.72 7.52 14.928 13.504 24.096 17.536 9.168 4.016 19.072 6.016 29.056 5.84 35.84-0.112 60.496-26.352 60.496-65.648 0 0 0 0 0 0M834.040 587.408c0 0 0-171.328 0-171.328s-40.288 0-40.288 0c0 0-1.68 23.936-1.68 23.936-6.72-8.496-15.264-15.328-24.96-19.984-9.696-4.64-20.304-6.976-31.024-6.816-35.792 0-60.432 26.192-60.432 65.488 0 0 0 108.704 0 108.704s44.688 0 44.688 0c0 0 0-98.144 0-98.144 0-24.496 11.184-38.192 30.176-38.192 5.072-0.144 10.112 0.736 14.816 2.624 4.72 1.888 9.008 4.72 12.624 8.336 3.616 3.6 6.464 7.92 8.4 12.688 1.92 4.768 2.896 9.888 2.832 15.040 0 0 0 97.648 0 97.648s44.848 0 44.848 0c0 0 0 0 0 0M959.96 589.792c0 0-0.544-41.408-0.544-41.408-5.808 0.64-11.68 0.64-17.488 0-19.648-2.256-33.936-12.816-33.936-39.008 0 0 0-93.296 0-93.296s-44.8 0-44.8 0c0 0 0 171.328 0 171.328s40.288 0 40.288 0c0 0 2.288-25.648 2.288-25.648 4.88 7.632 11.36 14.080 18.976 18.848 7.6 4.784 16.176 7.792 25.056 8.784 3.376 0.384 6.768 0.512 10.16 0.4 0 0 0 0 0 0" />
<glyph unicode="&#x42;" glyph-name="office" d="M512.063 1024c-53.292 0-105.42-15.781-149.723-45.402s-78.839-71.725-99.276-120.942c-20.373-49.283-25.676-103.416-15.328-155.738 10.413-52.257 36.089-100.246 73.794-137.952 37.641-37.705 85.695-63.316 137.952-73.729s106.455-5.109 155.738 15.328c49.217 20.372 91.321 54.909 120.877 99.211 29.621 44.367 45.467 96.431 45.467 149.723 0 71.466-28.393 140.022-78.968 190.597-50.512 50.512-119.067 78.904-190.533 78.904 0 0 0 0 0 0s0 0 0 0M512.063 592.811c-31.95 0-63.252 9.508-89.834 27.293-26.581 17.721-47.277 43.009-59.566 72.566-12.223 29.492-15.392 62.023-9.183 93.391 6.273 31.367 21.666 60.147 44.237 82.784 22.637 22.636 51.417 38.028 82.784 44.237 31.368 6.274 63.899 3.040 93.456-9.184s54.78-32.984 72.565-59.565c17.721-26.582 27.228-57.82 27.228-89.834 0-42.879-17.009-84.013-47.342-114.281-30.332-30.332-71.466-47.407-114.345-47.407 0 0 0 0 0 0s0 0 0 0M997.126 0c0 0 0 53.874 0 53.874 0 100.053-39.775 196.030-110.53 266.785s-166.668 110.465-266.72 110.465c0 0-215.626 0-215.626 0-100.053 0-195.966-39.711-266.72-110.465s-110.53-166.732-110.53-266.785c0 0 0-53.874 0-53.874s107.813 0 107.813 0c0 0 0 53.874 0 53.874 0 71.466 28.393 140.022 78.904 190.533 50.511 50.576 119.067 78.968 190.533 78.968 0 0 215.626 0 215.626 0 71.466 0 139.957-28.392 190.533-78.968 50.511-50.511 78.903-119.067 78.903-190.533 0 0 0-53.874 0-53.874s107.814 0 107.814 0c0 0 0 0 0 0" />
<glyph unicode="&#x43;" glyph-name="cart" d="M244.234 967.259c0 0-202.021 0-202.021 0s-5.746-0.398-5.746-0.398c-20.594-2.731-36.467-19.912-36.467-40.791 0 0 0.341-5.575 0.341-5.575 2.788-20.083 20.481-35.614 41.872-35.614 0 0 136.027 0 136.027 0s92.562-470.661 92.562-470.661c0 0 2.503-8.136 2.503-8.136 15.076-42.497 58.826-69.521 105.42-63.888 0 0 477.658 71.91 477.658 71.91s8.193 1.365 8.193 1.365c34.817 7.169 63.263 32.201 73.844 65.767 0 0 81.241 202.419 81.241 202.419s1.877 6.826 1.877 6.826c1.081 4.609 1.821 9.331 2.162 14.053 4.21 52.908-36.41 99.104-90.741 103.143 0 0-549.455 49.666-549.455 49.666s-5.746 0.057-5.746 0.057c-20.766-1.194-38.004-17.181-39.654-37.946-1.763-22.7 15.645-42.498 38.914-44.262 0 0 549.455-49.609 549.455-49.609s3.243-0.625 3.243-0.625c6.087-1.878 10.24-7.624 9.728-14.109-0.057-1.025-0.284-2.049-0.569-3.016 0 0-81.24-202.419-81.24-202.419s-1.309-2.901-1.309-2.901c-2.218-3.641-6.030-6.144-10.411-6.656 0 0-477.715-71.911-477.715-71.911s-3.471 0-3.471 0c-5.632 0.683-10.468 4.665-11.947 10.298 0 0-108.548 533.013-108.548 533.013s0 0 0 0M512.021 142.337c0-47.106-38.231-85.337-85.337-85.337-47.163 0-85.337 38.231-85.337 85.337s38.174 85.337 85.337 85.337c47.106 0 85.337-38.231 85.337-85.337 0 0 0 0 0 0M910.259 142.337c0-47.106-38.231-85.337-85.337-85.337-47.162 0-85.336 38.231-85.336 85.337s38.174 85.337 85.336 85.337c47.106 0 85.337-38.231 85.337-85.337 0 0 0 0 0 0" />
<glyph unicode="&#x44;" glyph-name="realty" d="M464.759 537.971c0 0-39.594 0-39.594 0-6.759 0-13.244-2.73-18.057-7.543-4.778-4.847-7.475-11.401-7.475-18.227 0-6.861 2.697-13.415 7.475-18.227 4.813-4.847 11.298-7.578 18.057-7.578 0 0 39.594 0 39.594 0 6.759 0 13.278 2.731 18.057 7.578 4.779 4.812 7.475 11.366 7.475 18.227 0 6.826-2.696 13.38-7.475 18.227-4.779 4.813-11.298 7.543-18.057 7.543 0 0 0 0 0 0M638.43 537.971c0 0-39.595 0-39.595 0-6.758 0-13.244-2.73-18.056-7.543-4.779-4.847-7.476-11.401-7.476-18.227 0-6.861 2.697-13.415 7.476-18.227 4.812-4.847 11.298-7.578 18.056-7.578 0 0 39.595 0 39.595 0 6.758 0 13.278 2.731 18.056 7.578 4.779 4.812 7.476 11.366 7.476 18.227 0 6.826-2.697 13.38-7.476 18.227-4.778 4.813-11.298 7.543-18.056 7.543 0 0 0 0 0 0M464.759 713.28c0 0-39.594 0-39.594 0-6.759 0-13.244-2.73-18.057-7.577-4.778-4.813-7.475-11.367-7.475-18.228 0-6.826 2.697-13.38 7.475-18.227 4.813-4.813 11.298-7.543 18.057-7.543 0 0 39.594 0 39.594 0 6.759 0 13.278 2.73 18.057 7.543 4.779 4.847 7.475 11.401 7.475 18.227 0 6.861-2.696 13.415-7.475 18.228-4.779 4.847-11.298 7.577-18.057 7.577 0 0 0 0 0 0M638.43 713.28c0 0-39.595 0-39.595 0-6.758 0-13.244-2.73-18.056-7.577-4.779-4.813-7.476-11.367-7.476-18.228 0-6.826 2.697-13.38 7.476-18.227 4.812-4.813 11.298-7.543 18.056-7.543 0 0 39.595 0 39.595 0 6.758 0 13.278 2.73 18.056 7.543 4.779 4.847 7.476 11.401 7.476 18.227 0 6.861-2.697 13.415-7.476 18.228-4.778 4.847-11.298 7.577-18.056 7.577 0 0 0 0 0 0M464.759 362.629c0 0-39.594 0-39.594 0-6.759 0-13.244-2.697-18.057-7.544-4.778-4.847-7.475-11.4-7.475-18.227s2.697-13.415 7.475-18.227c4.813-4.847 11.298-7.544 18.057-7.544 0 0 39.594 0 39.594 0 6.759 0 13.278 2.697 18.057 7.544 4.779 4.812 7.475 11.4 7.475 18.227s-2.696 13.38-7.475 18.227c-4.779 4.847-11.298 7.544-18.057 7.544 0 0 0 0 0 0M638.43 362.629c0 0-39.595 0-39.595 0-6.758 0-13.244-2.697-18.056-7.544-4.779-4.847-7.476-11.4-7.476-18.227s2.697-13.415 7.476-18.227c4.812-4.847 11.298-7.544 18.056-7.544 0 0 39.595 0 39.595 0 6.758 0 13.278 2.697 18.056 7.544 4.779 4.812 7.476 11.4 7.476 18.227s-2.697 13.38-7.476 18.227c-4.778 4.847-11.298 7.544-18.056 7.544 0 0 0 0 0 0M1024 111.271c0 0 0 596.821 0 596.821 0 27.375-10.752 53.589-29.901 72.943-19.149 19.319-45.158 30.174-72.226 30.174 0 0-120.013 0-120.013 0s0 24.508 0 24.508c0 27.34-10.786 53.589-29.935 72.908-19.148 19.354-45.124 30.208-72.226 30.208 0 0-335.804 0-335.804 0-27.101 0-53.077-10.854-72.226-30.208-19.148-19.319-29.9-45.568-29.9-72.908 0 0 0-311.945 0-311.945s-159.608 0-159.608 0c-27.102 0-53.077-10.854-72.226-30.208-19.149-19.319-29.935-45.568-29.935-72.909 0 0 0-309.384 0-309.384 0-6.827 2.697-13.381 7.475-18.228 4.813-4.812 11.298-7.543 18.057-7.543 0 0 972.936 0 972.936 0 6.793 0 13.278 2.731 18.057 7.543 4.778 4.847 7.475 11.401 7.475 18.228 0 0 0 0 0 0M51.098 137.075c0 0 0 283.58 0 283.58 0 13.688 5.359 26.795 14.95 36.455 9.557 9.659 22.562 15.087 36.113 15.087 0 0 163.43 0 163.43 0 6.691 0 13.347-1.332 19.525-3.926 6.212-2.56 11.844-6.383 16.589-11.161 4.744-4.779 8.499-10.479 11.059-16.726s3.891-12.97 3.891-19.729c0 0 0-283.58 0-283.58s-265.557 0-265.557 0c0 0 0 0 0 0M367.718 137.075c0 0 0 283.58 0 283.58-0.239 18.808-5.461 37.206-15.121 53.282s-23.381 29.287-39.765 38.23c0 0 0 323.55 0 323.55 0 13.687 5.359 26.794 14.95 36.454s22.563 15.121 36.113 15.121c0 0 335.804 0 335.804 0 13.551 0 26.522-5.461 36.113-15.121s14.951-22.767 14.951-36.454c0 0 0-698.642 0-698.642s-383.045 0-383.045 0c0 0 0 0 0 0M972.937 137.075c0 0-171.077 0-171.077 0s0 622.592 0 622.592c0 0 120.013 0 120.013 0 13.551 0 26.522-5.427 36.113-15.121 9.557-9.659 14.951-22.767 14.951-36.454 0 0 0-571.017 0-571.017s0 0 0 0M464.759 537.971c0 0-39.594 0-39.594 0-6.759 0-13.244-2.73-18.057-7.543-4.778-4.847-7.475-11.401-7.475-18.227 0-6.861 2.697-13.415 7.475-18.227 4.813-4.847 11.298-7.578 18.057-7.578 0 0 39.594 0 39.594 0 6.759 0 13.278 2.731 18.057 7.578 4.779 4.812 7.475 11.366 7.475 18.227 0 6.826-2.696 13.38-7.475 18.227-4.779 4.813-11.298 7.543-18.057 7.543 0 0 0 0 0 0M638.43 537.971c0 0-39.595 0-39.595 0-6.758 0-13.244-2.73-18.056-7.543-4.779-4.847-7.476-11.401-7.476-18.227 0-6.861 2.697-13.415 7.476-18.227 4.812-4.847 11.298-7.578 18.056-7.578 0 0 39.595 0 39.595 0 6.758 0 13.278 2.731 18.056 7.578 4.779 4.812 7.476 11.366 7.476 18.227 0 6.826-2.697 13.38-7.476 18.227-4.778 4.813-11.298 7.543-18.056 7.543 0 0 0 0 0 0M464.759 713.28c0 0-39.594 0-39.594 0-6.759 0-13.244-2.73-18.057-7.577-4.778-4.813-7.475-11.367-7.475-18.228 0-6.826 2.697-13.38 7.475-18.227 4.813-4.813 11.298-7.543 18.057-7.543 0 0 39.594 0 39.594 0 6.759 0 13.278 2.73 18.057 7.543 4.779 4.847 7.475 11.401 7.475 18.227 0 6.861-2.696 13.415-7.475 18.228-4.779 4.847-11.298 7.577-18.057 7.577 0 0 0 0 0 0M638.43 713.28c0 0-39.595 0-39.595 0-6.758 0-13.244-2.73-18.056-7.577-4.779-4.813-7.476-11.367-7.476-18.228 0-6.826 2.697-13.38 7.476-18.227 4.812-4.813 11.298-7.543 18.056-7.543 0 0 39.595 0 39.595 0 6.758 0 13.278 2.73 18.056 7.543 4.779 4.847 7.476 11.401 7.476 18.227 0 6.861-2.697 13.415-7.476 18.228-4.778 4.847-11.298 7.577-18.056 7.577 0 0 0 0 0 0M464.759 362.629c0 0-39.594 0-39.594 0-6.759 0-13.244-2.697-18.057-7.544-4.778-4.847-7.475-11.4-7.475-18.227s2.697-13.38 7.475-18.227c4.813-4.847 11.298-7.544 18.057-7.544 0 0 39.594 0 39.594 0 6.759 0 13.278 2.697 18.057 7.544s7.475 11.4 7.475 18.227c0 6.827-2.696 13.38-7.475 18.227s-11.298 7.544-18.057 7.544c0 0 0 0 0 0M638.43 362.629c0 0-39.595 0-39.595 0-6.758 0-13.244-2.697-18.056-7.544-4.779-4.847-7.476-11.4-7.476-18.227s2.697-13.38 7.476-18.227c4.812-4.847 11.298-7.544 18.056-7.544 0 0 39.595 0 39.595 0 6.758 0 13.278 2.697 18.056 7.544s7.476 11.4 7.476 18.227c0 6.827-2.697 13.38-7.476 18.227s-11.298 7.544-18.056 7.544c0 0 0 0 0 0M1024 111.271c0 0 0 596.821 0 596.821 0 27.375-10.752 53.589-29.901 72.943-19.149 19.319-45.158 30.174-72.226 30.174 0 0-120.013 0-120.013 0s0 24.508 0 24.508c0 27.34-10.786 53.589-29.935 72.908-19.148 19.354-45.124 30.208-72.226 30.208 0 0-335.804 0-335.804 0-27.101 0-53.077-10.854-72.226-30.208-19.148-19.319-29.9-45.568-29.9-72.908 0 0 0-311.945 0-311.945s-159.608 0-159.608 0c-27.102 0-53.077-10.854-72.226-30.208-19.149-19.319-29.935-45.568-29.935-72.909 0 0 0-309.384 0-309.384 0-6.827 2.697-13.381 7.475-18.228 4.813-4.812 11.298-7.543 18.057-7.543 0 0 972.936 0 972.936 0 6.793 0 13.278 2.731 18.057 7.543 4.778 4.847 7.475 11.401 7.475 18.228 0 0 0 0 0 0M51.098 137.075c0 0 0 283.58 0 283.58 0 13.688 5.359 26.795 14.95 36.455 9.557 9.659 22.562 15.087 36.113 15.087 0 0 163.43 0 163.43 0 6.691 0 13.347-1.332 19.525-3.926 6.212-2.56 11.844-6.383 16.589-11.161 4.744-4.779 8.499-10.479 11.059-16.726s3.891-12.97 3.891-19.729c0 0 0-283.58 0-283.58s-265.557 0-265.557 0c0 0 0 0 0 0M367.718 137.075c0 0 0 283.58 0 283.58-0.239 18.808-5.461 37.206-15.121 53.282s-23.381 29.287-39.765 38.23c0 0 0 323.55 0 323.55 0 13.687 5.359 26.794 14.95 36.454s22.563 15.121 36.113 15.121c0 0 335.804 0 335.804 0 13.551 0 26.522-5.461 36.113-15.121s14.951-22.767 14.951-36.454c0 0 0-698.642 0-698.642s-383.045 0-383.045 0c0 0 0 0 0 0M972.937 137.075c0 0-171.077 0-171.077 0s0 622.592 0 622.592c0 0 120.013 0 120.013 0 13.551 0 26.522-5.427 36.113-15.121 9.557-9.659 14.951-22.767 14.951-36.454 0 0 0-571.017 0-571.017s0 0 0 0" />
<glyph unicode="&#x45;" glyph-name="uni45" d="M923.389 1007.087c-8.099-8.099-16.244-16.245-24.343-24.344-21.877-21.876-43.893-43.892-65.769-65.769-32.582-32.582-65.164-65.164-97.793-97.792-39.517-39.517-79.034-79.035-118.551-118.552-43.567-43.567-87.087-87.087-130.701-130.7-43.659-43.66-87.412-87.413-131.072-131.073-40.96-40.96-82.014-82.013-122.927-122.927-34.491-34.49-68.841-68.841-103.332-103.331-24.901-24.948-49.757-49.757-74.705-74.706-11.73-11.729-23.506-23.412-35.142-35.142-0.466-0.512-1.071-1.070-1.536-1.536-10.613-10.705-17.176-26.577-17.176-41.658 0-14.476 6.331-31.651 17.176-41.658 11.171-10.24 25.879-17.874 41.658-17.176 15.639 0.699 30.348 6.005 41.612 17.176 8.145 8.145 16.244 16.244 24.39 24.343 21.876 21.923 43.846 43.893 65.722 65.769 32.629 32.582 65.211 65.21 97.793 97.792 39.517 39.518 79.034 79.035 118.598 118.599 43.52 43.52 87.040 87.040 130.7 130.7 43.66 43.613 87.413 87.413 131.026 131.026 40.96 40.96 82.014 82.013 122.974 122.973 34.443 34.444 68.794 68.795 103.284 103.285 24.949 24.949 49.758 49.757 74.706 74.706 11.776 11.776 23.506 23.412 35.189 35.188 0.465 0.466 1.024 1.024 1.489 1.49 10.706 10.705 17.176 26.484 17.176 41.658 0 14.476-6.331 31.651-17.176 41.659-11.171 10.24-25.879 17.873-41.612 17.175-15.639-0.698-30.347-6.004-41.658-17.175 0 0 0 0 0 0M207.284 658.599c-10.007 0-20.014 0-30.022 0-11.171 0-22.574-0.558-33.745 0.838 5.166-0.698 10.473-1.396 15.639-2.094-8.471 1.163-16.57 3.397-24.483 6.702 4.701-2.001 9.402-4.003 14.010-5.911-7.633 3.305-14.801 7.401-21.411 12.474 4.003-3.072 7.867-6.097 11.87-9.169-6.936 5.399-13.173 11.543-18.433 18.478 3.026-4.003 6.098-7.912 9.17-11.869-5.074 6.703-9.17 13.731-12.474 21.411 2.001-4.747 4.003-9.449 5.864-14.010-3.165 7.866-5.399 16.012-6.702 24.483 0.698-5.213 1.396-10.473 2.141-15.686-1.21 8.937-0.838 17.92-0.838 26.857 0 14.103 0 28.113 0 42.217 0 32.349 0 64.838 0 97.187 0 10.24-0.465 20.573 0.838 30.72-0.745-5.213-1.443-10.473-2.141-15.686 1.164 8.472 3.398 16.617 6.702 24.483-2.001-4.701-4.002-9.402-5.864-14.010 3.304 7.68 7.4 14.848 12.474 21.411-3.072-4.003-6.144-7.866-9.17-11.869 5.4 6.935 11.497 13.172 18.433 18.479-4.003-3.072-7.867-6.144-11.87-9.17 6.703 5.027 13.778 9.17 21.411 12.474-4.701-2.001-9.402-4.003-14.010-5.911 7.913 3.165 16.012 5.446 24.483 6.703-5.166-0.699-10.473-1.397-15.639-2.095 12.707 1.629 25.646 0.838 38.353 0.838s25.74 0.698 38.354-0.838c-5.167 0.698-10.473 1.396-15.639 2.095 8.471-1.164 16.57-3.398 24.436-6.703-4.701 2.001-9.402 4.003-13.964 5.911 7.634-3.304 14.802-7.447 21.411-12.474-4.002 3.026-7.912 6.098-11.915 9.17 6.935-5.4 13.172-11.544 18.478-18.479-3.072 4.003-6.097 7.866-9.169 11.869 5.073-6.702 9.169-13.731 12.474-21.411-2.001 4.701-4.003 9.402-5.865 14.010 3.165-7.866 5.4-16.011 6.703-24.483-0.745 5.213-1.443 10.473-2.141 15.686 1.164-8.983 0.838-17.92 0.838-26.857 0-14.103 0-28.113 0-42.217 0-32.349 0-64.838 0-97.187 0-10.24 0.465-20.573-0.838-30.72 0.698 5.213 1.396 10.473 2.141 15.686-1.21-8.471-3.444-16.617-6.703-24.483 2.002 4.701 3.957 9.402 5.865 14.010-3.305-7.68-7.401-14.848-12.474-21.411 3.072 3.957 6.097 7.866 9.169 11.869-5.399-6.935-11.543-13.079-18.478-18.478 4.003 3.072 7.913 6.097 11.915 9.169-6.702-5.073-13.777-9.169-21.411-12.474 4.702 2.001 9.403 4.003 13.964 5.911-7.866-3.211-15.965-5.446-24.436-6.702 5.166 0.698 10.472 1.396 15.639 2.094-4.236-0.465-8.611-0.838-12.94-0.838-15.174-0.093-30.813-6.469-41.658-17.175-10.24-10.24-17.874-26.903-17.175-41.612 0.698-15.174 5.632-30.953 17.175-41.658 11.404-10.473 25.647-17.408 41.658-17.175 39.983 0.325 76.801 15.639 106.45 42.123 12.381 11.032 23.32 25.182 30.953 39.89 10.706 20.666 15.639 39.75 18.246 62.79 0.931 9.076 0.698 18.246 0.698 27.322 0 15.035 0 30.115 0 45.15 0 32.954 0 65.769 0 98.723 0 15.639-0.931 30.72-4.003 46.22-3.305 16.477-10.333 33.047-19.549 47.29-12.195 18.944-26.205 32.722-44.079 46.034-25.414 18.897-58.368 27.881-89.786 27.974-15.174 0-30.488 0-45.661 0-29.65 0-59.532-6.936-84.807-22.715-33.047-20.573-57.297-52.084-68.841-89.274-9.169-29.417-6.563-62.139-6.563-92.254 0-34.443 0-68.934 0-103.517 0-7.401-0.139-14.709 0-22.109 0.931-39.424 16.338-76.242 43.148-105.054 11.311-12.241 25.321-23.086 40.262-30.487 21.039-10.473 39.75-15.314 62.93-17.641 15.174-1.536 30.813-0.465 45.987-0.465 4.841 0 9.775 0 14.615 0 15.035 0 30.953 6.563 41.659 17.175 10.193 10.24 17.873 26.95 17.175 41.658-0.745 15.174-5.679 30.907-17.175 41.612-11.544 10.473-25.787 17.175-41.659 17.175 0 0 0 0 0 0M867.627 118.391c-10.007 0-20.014 0-30.022 0-11.171 0-22.574-0.605-33.745 0.791 5.166-0.698 10.473-1.396 15.639-2.095-8.471 1.164-16.57 3.398-24.483 6.703 4.701-2.001 9.449-4.003 14.010-5.865-7.633 3.258-14.801 7.401-21.411 12.474 4.003-3.072 7.913-6.144 11.916-9.216-6.982 5.446-13.219 11.544-18.479 18.479 3.026-4.003 6.098-7.866 9.17-11.869-5.074 6.702-9.17 13.777-12.474 21.411 2.001-4.701 4.003-9.402 5.864-14.010-3.165 7.912-5.399 16.011-6.702 24.483 0.698-5.167 1.396-10.473 2.141-15.64-1.21 8.937-0.838 17.874-0.838 26.811 0 14.103 0 28.113 0 42.217 0 32.395 0 64.838 0 97.187 0 10.24-0.465 20.62 0.838 30.72-0.698-5.167-1.443-10.473-2.141-15.639 1.164 8.471 3.398 16.57 6.702 24.436-2.001-4.701-4.002-9.402-5.864-13.964 3.304 7.634 7.4 14.802 12.474 21.411-3.072-4.003-6.144-7.912-9.17-11.915 5.4 6.982 11.497 13.219 18.433 18.478-3.957-3.025-7.867-6.097-11.87-9.169 6.703 5.073 13.778 9.169 21.411 12.474-4.701-2.001-9.402-4.003-14.010-5.865 7.913 3.165 16.012 5.4 24.483 6.703-5.166-0.698-10.473-1.443-15.639-2.141 12.707 1.675 25.646 0.838 38.353 0.838s25.74 0.698 38.354-0.838c-5.167 0.698-10.473 1.443-15.639 2.141 8.471-1.21 16.57-3.444 24.436-6.703-4.701 2.002-9.402 4.003-13.964 5.865 7.634-3.305 14.802-7.401 21.411-12.474-4.002 3.072-7.912 6.144-11.915 9.169 6.982-5.399 13.079-11.496 18.478-18.478-3.025 4.003-6.097 7.912-9.169 11.915 5.073-6.702 9.169-13.777 12.474-21.411-2.001 4.701-4.003 9.403-5.865 13.964 3.165-7.866 5.4-15.965 6.703-24.436-0.698 5.166-1.443 10.472-2.141 15.639 1.163-8.937 0.838-17.874 0.838-26.81 0-14.15 0-28.114 0-42.264 0-32.349 0-64.791 0-97.187 0-10.194 0.465-20.573-0.838-30.674 0.698 5.167 1.443 10.473 2.141 15.64-1.21-8.472-3.444-16.571-6.703-24.483 2.002 4.701 4.003 9.402 5.865 14.010-3.305-7.634-7.401-14.802-12.474-21.411 3.072 4.003 6.144 7.866 9.169 11.869-5.399-6.935-11.496-13.033-18.478-18.479 4.003 3.072 7.913 6.144 11.915 9.216-6.702-5.073-13.777-9.216-21.411-12.474 4.702 2.002 9.403 4.003 13.964 5.865-7.866-3.165-15.965-5.399-24.436-6.703 5.166 0.699 10.472 1.397 15.639 2.095-4.236-0.465-8.471-0.791-12.94-0.791-15.174-0.14-30.813-6.47-41.658-17.176-10.24-10.24-17.874-26.95-17.175-41.658 0.698-15.174 5.632-30.953 17.175-41.658 11.404-10.473 25.647-17.408 41.658-17.176 39.983 0.373 76.801 15.64 106.45 42.124 12.381 11.078 23.32 25.181 30.953 39.89 10.706 20.713 15.639 39.75 18.246 62.836 0.931 9.030 0.698 18.2 0.698 27.276 0 15.081 0 30.115 0 45.196 0 32.908 0 65.769 0 98.677 0 15.639-0.931 30.72-4.003 46.266-3.305 16.431-10.333 33.047-19.549 47.29-12.195 18.944-26.205 32.675-44.079 45.988-25.414 18.944-58.368 27.88-89.786 27.973-15.174 0-30.488 0-45.661 0-29.65 0-59.532-6.935-84.807-22.667-33.047-20.62-57.297-52.131-68.841-89.321-9.029-29.184-6.33-61.86-6.33-92.114 0-34.444 0-68.934 0-103.518 0-7.4-0.139-14.708 0-22.109 0.931-39.424 16.338-76.242 43.195-105.053 11.264-12.242 25.274-23.087 40.215-30.488 21.039-10.473 39.75-15.313 62.93-17.641 15.174-1.536 30.813-0.465 46.033-0.465 4.794 0 9.728 0 14.569 0 15.034 0 30.953 6.563 41.658 17.175 10.24 10.24 17.874 26.95 17.176 41.659-0.698 15.174-5.679 30.906-17.176 41.611-11.776 10.38-25.879 17.083-41.891 17.083 0 0 0 0 0 0" />
<glyph unicode="&#x46;" glyph-name="arrow-top-right" d="M854.099 733.145c0 0-733.145-733.145-733.145-733.145s-120.454 120.454-120.454 120.454c0 0 733.145 733.145 733.145 733.145s-646.135 0-646.135 0c0 0 0 170.401 0 170.401s936.99 0 936.99 0c0 0 0-936.99 0-936.99s-170.401 0-170.401 0c0 0 0 646.135 0 646.135s0 0 0 0" />
<glyph unicode="&#x47;" glyph-name="soc-instagram" d="M512.057 671.972c-42.439-0.057-83.115-16.896-113.095-46.877s-46.877-70.656-46.934-113.095c0.057-42.439 16.896-83.115 46.934-113.095 29.98-30.037 70.656-46.877 113.095-46.933 42.439 0.056 83.115 16.896 113.095 46.933 30.037 29.98 46.876 70.656 46.933 113.095-0.057 42.439-16.896 83.115-46.933 113.152-29.98 29.98-70.656 46.763-113.095 46.82 0 0 0 0 0 0M815.73 731.932c-19.399 0-38.002 7.737-51.769 21.448-13.71 13.71-21.39 32.312-21.39 51.712s7.68 38.001 21.39 51.712c13.767 13.71 32.37 21.447 51.769 21.447s38.002-7.737 51.712-21.447c13.71-13.711 21.39-32.313 21.39-51.712s-7.68-38.002-21.39-51.712c-13.71-13.711-32.313-21.448-51.712-21.448 0 0 0 0 0 0M512 256c-67.868 0-133.006 26.965-181.020 74.98s-74.98 113.152-74.98 181.077c0 67.868 26.965 133.006 74.98 181.020 48.014 48.015 113.152 74.98 181.020 74.98 67.925 0 133.063-26.965 181.077-74.98s74.98-113.152 74.98-181.020c0-67.925-26.965-133.063-74.98-181.077s-113.152-74.98-181.077-74.98c0 0 0 0 0 0M704.114 1024c0 0-384 0-384 0-42.041 0-83.684-8.249-122.482-24.348-38.855-16.043-74.126-39.652-103.879-69.348-29.696-29.696-53.305-64.967-69.348-103.822-16.099-38.798-24.405-80.441-24.405-122.482 0 0 0-384 0-384 0-42.041 8.306-83.627 24.405-122.482 16.043-38.798 39.652-74.069 69.348-103.822 29.753-29.696 65.024-53.248 103.879-69.348 38.798-16.099 80.441-24.348 122.482-24.348 0 0 384 0 384 0 84.821 0.057 166.172 33.792 226.19 93.81 59.961 59.961 93.696 141.369 93.696 226.19 0 0 0 384 0 384 0 84.878-33.735 166.229-93.696 226.247-60.018 60.018-141.369 93.696-226.19 93.753 0 0 0 0 0 0" />
<glyph unicode="&#x48;" glyph-name="soc-telegram" d="M62.793 560.909c0 0 452.861 165.613 609.958 223.925 60.199 23.335 264.398 97.977 264.398 97.977s94.205 32.659 86.39-46.617c-2.64-32.659-23.605-146.966-44.515-270.596-31.42-174.99-65.48-366.255-65.48-366.255s-5.227-53.678-49.689-63.001c-44.515-9.323-117.81 32.659-130.905 41.982-10.456 7.007-196.332 111.99-264.398 163.296-18.324 14.012-39.288 41.982 2.586 74.641 94.259 77.013 206.841 172.619 274.907 233.302 31.42 27.97 62.786 93.288-68.066 14.012-185.876-114.307-369.112-221.661-369.112-221.661s-41.874-23.282-120.396-2.317c-78.576 21.018-170.194 48.988-170.194 48.988s-62.839 34.977 44.516 72.324c0 0 0 0 0 0" />
<glyph unicode="&#x49;" glyph-name="soc-facebook" d="M782.852 654.757c0.663 5.782-3.855 10.842-9.638 10.842 0 0-160.948 0-160.948 0-5.361 0-9.698 4.337-9.698 9.698 0 0 0 92.702 0 92.702 0 52.826 4.277 86.076 80.474 86.076 0 0 86.498 0 86.498 0 5.361 0 9.698 4.337 9.698 9.698 0 0 0 144.384 0 144.384 0 4.999-3.735 9.156-8.674 9.637-43.972 4.217-88.124 6.265-132.337 6.205-139.745 0-241.724-84.872-241.724-240.64 0 0 0-108.062 0-108.062 0-5.361-4.337-9.698-9.698-9.698 0 0-135.107 0-135.107 0-5.361 0-9.698-4.337-9.698-9.758 0 0 0-185.344 0-185.344 0-5.361 4.337-9.698 9.698-9.698 0 0 135.107 0 135.107 0 5.361 0 9.698-4.337 9.698-9.697 0 0 0-441.404 0-441.404 0-5.361 4.337-9.698 9.698-9.698 0 0 186.609 0 186.609 0 5.361 0 9.758 4.337 9.758 9.698 0 0 0 441.524 0 441.524 0 5.361 4.337 9.698 9.698 9.698 0 0 139.565 0.060 139.565 0.060 4.939 0 9.035 3.674 9.638 8.614 0 0 21.383 185.163 21.383 185.163s0 0 0 0" />
<glyph unicode="&#x4a;" glyph-name="soc-youtube" d="M149.725 848.242c-79.267-6.051-139.218-68.841-143.034-146.199-3.212-63.767-6.191-137.123-6.191-187.764 0-51.2 3.072-125.627 6.284-189.906 3.816-76.381 62.371-138.752 140.52-145.78 86.575-7.773 211.782-15.593 365.196-15.593 153.041 0 278.016 7.773 364.497 15.546 78.476 7.029 137.123 69.818 140.94 146.479 3.305 67.677 6.563 145.035 6.563 189.254 0 43.752-3.165 119.994-6.47 187.112-3.817 77.638-63.814 140.847-143.406 146.898-85.179 6.516-208.059 12.893-362.124 12.893-154.484 0-277.551-6.423-362.775-12.94 0 0 0 0 0 0M410.1 662.34c0 0 263.959-148.061 263.959-148.061s-263.959-148.015-263.959-148.015c0 0 0 296.076 0 296.076s0 0 0 0" />
<glyph unicode="&#x4b;" glyph-name="bracket-arrow-right" d="M560.63 512c0 0-263.13 438.613-263.13 438.613s122.249 73.387 122.249 73.387c0 0 307.143-512 307.143-512s-307.143-512-307.143-512c0 0-122.249 73.387-122.249 73.387s263.13 438.613 263.13 438.613c0 0 0 0 0 0" />
<glyph unicode="&#x4c;" glyph-name="eye" d="M512 690.828c-47.379 0-92.787-18.803-126.278-52.323-33.52-33.491-52.323-78.899-52.323-126.278s18.803-92.787 52.323-126.278c33.491-33.492 78.899-52.323 126.278-52.323s92.787 18.831 126.278 52.323c33.492 33.491 52.323 78.899 52.323 126.278s-18.831 92.787-52.323 126.278c-33.491 33.52-78.899 52.323-126.278 52.323 0 0 0 0 0 0M512 928.954c-214.979 0-359.832-128.765-443.874-237.983 0 0-1.486-1.943-1.486-1.943-19.061-24.718-36.521-47.437-48.38-74.298-12.716-28.834-18.26-60.21-18.26-102.503s5.544-73.67 18.26-102.503c11.888-26.862 29.377-49.608 48.38-74.298 0 0 1.514-1.943 1.514-1.943 84.014-109.219 228.867-237.983 443.846-237.983s359.832 128.764 443.874 237.983c0 0 1.486 1.943 1.486 1.943 19.061 24.69 36.521 47.436 48.38 74.298 12.716 28.833 18.26 60.21 18.26 102.503s-5.544 73.669-18.26 102.503c-11.888 26.861-29.377 49.58-48.38 74.298 0 0-1.514 1.943-1.514 1.943-84.014 109.218-228.867 237.983-443.846 237.983 0 0 0 0 0 0M124.792 647.392c77.528 100.817 203.834 210.121 387.208 210.121s309.623-109.304 387.208-210.121c20.946-27.147 33.148-43.35 41.207-61.524 7.515-17.060 12.144-37.864 12.144-73.641s-4.629-56.581-12.144-73.641c-8.059-18.174-20.29-34.377-41.15-61.525-77.699-100.816-203.891-210.12-387.265-210.12s-309.623 109.304-387.208 210.12c-20.946 27.148-33.148 43.351-41.207 61.525-7.515 17.060-12.144 37.863-12.144 73.641s4.629 56.581 12.144 73.641c8.059 18.174 20.347 34.377 41.207 61.524 0 0 0 0 0 0" />
<glyph unicode="&#x4e;" glyph-name="google-docs" d="M994.508 415.316c0 0-311.841 540.216-311.841 540.216s-341.239 0-341.239 0c0 0 311.841-540.216 311.841-540.216s341.239 0 341.239 0c0 0 0 0 0 0M311.841 904.299c0 0-311.841-540.216-311.841-540.216s170.714-295.583 170.714-295.583c0 0 311.747 540.121 311.747 540.121s-170.62 295.678-170.62 295.678c0 0 0 0 0 0M400.601 364.083c0 0-170.714-295.583-170.714-295.583s623.588 0 623.588 0c0 0 170.525 295.677 170.525 295.677s-623.399-0.094-623.399-0.094c0 0 0 0 0 0" />
<glyph unicode="&#x50;" glyph-name="dividends" d="M352.192 434.32c0 0 16.229 0 16.229 0-1.932-7.149-2.975-14.529-3.053-21.948 0 0 0 0 0 0s0-0.116 0-0.116c0-24.421 9.699-47.876 26.972-65.148 17.272-17.234 40.688-26.972 65.109-26.972 0 0 114.879 0 114.879 0 1.546-4.946 4.289-9.544 8.038-13.292 6.105-6.105 14.374-9.506 22.991-9.506s16.886 3.401 22.991 9.506c6.067 6.105 9.506 14.336 9.506 22.952 0 0 0 22.837 0 22.837 0 8.617-3.439 16.886-9.506 22.991-6.105 6.106-14.374 9.506-22.991 9.506 0 0-145.869 0-145.869 0s0 0 0 0c-5.796 0.039-11.399 1.932-16.036 5.371s-8.037 8.269-9.737 13.795c-1.701 5.525-1.585 11.476 0.347 16.925 1.855 5.293 5.294 9.853 9.854 13.099 0 0 229.951 0 229.951 0 8.617 0 16.886 3.439 22.952 9.505 6.106 6.106 9.545 14.375 9.545 22.992s-3.439 16.886-9.545 22.991c-6.066 6.066-14.335 9.505-22.952 9.505 0 0-132.499 0-132.499 0s39.529 26.353 39.529 26.353c0 0 92.97 0 92.97 0 8.617 0 16.886 3.401 22.952 9.506 6.106 6.105 9.545 14.374 9.545 22.991s-3.439 16.848-9.545 22.953c-6.066 6.105-14.335 9.506-22.952 9.506 0 0-39.066 0-39.066 0 1.932 7.148 2.937 14.528 3.053 21.948 0 0 0 0 0 0s0 0.154 0 0.154c0 24.421-9.699 47.837-26.972 65.11s-40.688 26.971-65.109 26.971c0 0-114.879 0-114.879 0-1.546 4.985-4.289 9.544-8.076 13.331-6.067 6.067-14.336 9.506-22.953 9.506s-16.886-3.439-22.991-9.506c-6.105-6.105-9.506-14.374-9.506-22.991 0 0 0-22.837 0-22.837 0-8.617 3.401-16.886 9.506-22.991 6.105-6.067 14.374-9.506 22.991-9.506 0 0 145.869 0 145.869 0 5.796-0.038 11.399-1.893 16.036-5.332s8.037-8.308 9.737-13.834c1.701-5.525 1.585-11.437-0.347-16.886-1.855-5.293-5.294-9.892-9.854-13.137 0 0-207.114 0-207.114 0-8.617 0-16.886-3.401-22.991-9.506-6.067-6.105-9.506-14.336-9.506-22.953s3.439-16.886 9.506-22.991c6.105-6.105 14.374-9.506 22.991-9.506 0 0 109.662 0 109.662 0s-39.529-26.353-39.529-26.353c0 0-70.133 0-70.133 0-8.617 0-16.886-3.439-22.991-9.505-6.067-6.105-9.506-14.375-9.506-22.991s3.439-16.886 9.506-22.992c6.105-6.066 14.374-9.505 22.991-9.505 0 0 0 0 0 0M227.537 86.785c84.198-56.261 183.196-86.285 284.473-86.285 135.784 0 266.003 53.942 362.025 149.926 96.023 96.022 149.965 226.242 149.965 362.064 0 101.239-30.024 200.236-86.285 284.435s-136.247 149.81-229.796 188.566c-93.55 38.757-196.489 48.881-295.795 29.136-99.346-19.746-190.538-68.511-262.178-140.112-71.601-71.601-120.366-162.832-140.111-262.177-19.746-99.307-9.622-202.246 29.135-295.795s104.369-173.497 188.567-229.758c0 0 0 0 0 0M263.666 884.137c73.495 49.112 159.934 75.349 248.344 75.349 58.695 0 116.811-11.592 171.063-34.042 54.213-22.451 103.48-55.373 145.018-96.911 41.501-41.5 74.422-90.767 96.873-145.019 22.489-54.213 34.042-112.329 34.042-171.024 0-88.41-26.237-174.849-75.349-248.344-49.113-73.533-118.936-130.799-200.584-164.648-81.687-33.85-171.565-42.698-258.275-25.426-86.71 17.234-166.349 59.816-228.869 122.337-62.521 62.482-105.103 142.159-122.337 228.869-17.272 86.71-8.424 176.588 25.426 258.236 33.849 81.686 91.115 151.51 164.648 200.623 0 0 0 0 0 0" />
<glyph unicode="&#x53;" glyph-name="smooth-arrow-down" d="M447.023 30.334c40.445-40.445 89.58-40.445 130.129 0 50.377 50.273 100.753 100.752 151.129 151.128 46.652 46.549 93.304 93.201 139.956 139.853 25.653 25.757 34.136 56.272 22.343 90.615-20.171 59.168-94.235 75.305-139.852 30.618-47.687-46.859-94.649-94.442-141.922-141.714-3.31-3.207-6.827-6.31-12.31-11.482 0 7.654 0 12.723 0 17.791 0 207.090 0 414.18 0 621.27 0 5.275 0.104 10.551-0.206 15.826-2.173 43.963-38.895 79.236-82.858 79.753-48.514 0.621-85.753-37.135-85.753-87.511-0.103-209.779-0.103-419.558-0.103-629.234 0-5.069 0-10.137 0-17.792-5.483 5.069-8.896 8.172-12.207 11.482-46.652 46.652-93.407 93.201-139.956 139.956-22.86 22.964-50.272 32.17-81.822 24.826s-52.858-27.515-61.548-58.858c-9.206-32.791-0.206-61.444 23.895-85.546 97.028-96.925 194.057-193.953 291.085-290.981 0 0 0 0 0 0" />
<glyph unicode="&#x54;" glyph-name="smooth-arrow-top-right" d="M1024.21 902.62c0 75.73-46.013 121.743-121.743 121.88-94.354 0-188.708 0-282.925 0-87.37 0-174.74 0-261.973 0-48.205 0-84.632-20.678-105.858-63.816-36.427-74.36 17.803-158.854 102.297-159.676 88.466-0.821 177.068-0.137 265.534-0.274 6.162 0 12.324-0.274 22.321-0.684-7.121-7.121-11.914-11.915-16.707-16.571-193.912-193.912-387.687-387.824-581.599-581.599-4.93-5.067-9.997-9.86-14.653-15.064-39.029-43.137-37.659-110.513 3.013-152.281 44.78-45.876 114.896-45.465 162.141 1.781 196.514 196.24 392.754 392.617 589.131 588.994 4.793 4.656 9.449 9.449 16.707 16.57 0.274-9.86 0.685-16.023 0.685-22.185 0-87.37 0.137-174.74 0-261.973-0.137-43 16.844-77.236 53.271-99.969 36.427-22.595 75.182-23.691 112.704-2.602 39.44 22.322 57.791 57.38 57.791 102.571-0.137 181.587-0.137 363.311-0.137 544.898 0 0 0 0 0 0" />
<glyph unicode="&#x56;" glyph-name="circular" d="M51.774 515.537c-17.268-10.721-20.744-18.835-20.744-22.916 0-2.343 1.024-6.066 5.912-11.279 4.949-5.291 13.017-11.156 24.715-17.207 23.382-12.086 58.229-23.443 102.602-33.14 88.452-19.363 211.409-31.465 347.741-31.465s259.289 12.102 347.757 31.465c44.357 9.697 79.204 21.054 102.586 33.14 11.714 6.051 19.782 11.916 24.731 17.207 4.872 5.213 5.896 8.936 5.896 11.279 0 4.081-3.476 12.195-20.729 22.916-16.384 10.163-41.239 20.123-73.79 29.2-64.868 18.059-156.765 31.588-263.199 37.577 0 0 1.738 30.984 1.738 30.984 107.706-6.066 202.007-19.813 269.778-38.679 33.776-9.402 61.858-20.31 81.842-32.722 19.084-11.853 35.39-28.036 35.39-49.276 0-12.629-5.927-23.552-14.274-32.473-8.27-8.859-19.72-16.632-33.125-23.583-26.872-13.886-64.729-25.941-110.219-35.887-91.214-19.952-216.499-32.178-354.382-32.178-137.868 0-263.152 12.226-354.382 32.178-45.49 9.946-83.347 22.001-110.204 35.887-13.42 6.951-24.87 14.724-33.14 23.583-8.347 8.921-14.274 19.844-14.274 32.473 0 21.24 16.306 37.423 35.406 49.276 19.983 12.412 48.066 23.32 81.826 32.722 67.786 18.866 162.072 32.613 269.778 38.679 0 0 1.738-30.984 1.738-30.984-106.419-5.989-198.315-19.518-263.184-37.577-32.551-9.077-57.421-19.037-73.79-29.2 0 0 0 0 0 0M312.661 648.254c4.546 7.261 14.119 9.479 21.38 4.934 0 0 62.666-39.176 62.666-39.176 3.708-2.312 6.268-6.082 7.044-10.38s-0.295-8.719-2.933-12.195c0 0-47.15-61.673-47.15-61.673-5.198-6.811-14.941-8.114-21.752-2.916-6.812 5.213-8.099 14.941-2.902 21.752 0 0 36.787 48.143 36.787 48.143s-48.206 30.131-48.206 30.131c-7.261 4.546-9.464 14.119-4.934 21.38 0 0 0 0 0 0M711.944 648.254c-4.546 7.261-14.119 9.479-21.38 4.934 0 0-62.65-39.176-62.65-39.176-3.708-2.312-6.268-6.082-7.044-10.38-0.791-4.298 0.279-8.719 2.932-12.195 0 0 47.151-61.673 47.151-61.673 5.197-6.811 14.941-8.114 21.736-2.916 6.812 5.213 8.115 14.941 2.917 21.752 0 0-36.802 48.143-36.802 48.143s48.206 30.131 48.206 30.131c7.277 4.546 9.48 14.119 4.934 21.38 0 0 0 0 0 0" />
<glyph unicode="&#xe900;" glyph-name="messengers" horiz-adv-x="1069" d="M1063.785 219.492c-18.477 52.727-36.935 105.459-56.026 157.972-3.513 9.67-3.081 17.519 1.166 26.838 45.279 99.417 52.945 201.821 20.876 305.892-68.595 222.603-301.506 354.076-534.158 302.716-188.058-41.515-329.472-198.666-347.624-386.415-1.138-11.771 1.674-25.229-3.364-34.951-5.219-10.072-18.021-16.283-27.063-24.635-99.744-92.142-128.487-228.445-80.932-347.519 6.435-16.112 7.972-29.598 1.43-45.929-13.816-34.482-25.519-69.766-38.089-104.72 0-8.13 0-16.255 0-24.385 0.515-0.414 1.297-0.726 1.507-1.251 15.285-38.525 43.552-51.365 83.617-37.964 36.414 12.181 72.773 24.523 109.333 36.272 4.667 1.5 11.032 1.291 15.54-0.574 29.582-12.239 60.133-21.33 92.030-24.585 121.697-12.417 221.757 27.572 299.595 119.47 5.663 6.687 11.322 9.741 19.95 10.093 57.598 2.337 112.475 15.885 164.686 39.46 6.99 3.157 12.773 3.085 19.723 0.73 55.033-18.641 110.187-36.957 165.251-55.519 14.087-4.746 28.409-6.994 42.972-3.455 43.315 10.52 64.454 50.002 49.579 92.458zM465.047 104.733c-77.201-37.3-155.494-39.054-233.842-3.989-17.368 7.773-32.814 9.074-50.713 2.462-32.727-12.088-66.107-22.506-99.226-33.587-3.803-1.273-7.678-2.346-14.094-4.292 13.001 36.855 24.028 71.364 37.453 104.969 8.296 20.765 7.050 38.52-2.675 58.858-44.348 92.734-25.191 204.163 46.34 279.325 0.676 0.712 1.569 1.224 2.088 1.625 47.176-197.899 172.552-318.192 376.832-361.73-17.813-17.644-38.823-32.367-62.161-43.64zM672.185 507.926c-1.661-12.404-12.252-23.272-24.995-25.271-4.096-0.641-8.308-0.801-12.471-0.801-73.715-0.049-147.434 0.045-221.148-0.098-14.546-0.031-26.9 3.437-34.052 16.927-10.915 20.587 3.375 44.499 27.595 44.856 38.936 0.579 77.883 0.156 116.831 0.156 0 0.013 0 0.022 0 0.036 38.943 0 77.891 0.294 116.829-0.116 20.805-0.223 34.059-15.885 31.41-35.689zM795.991 625.612c-4.212-1.239-8.869-1.426-13.321-1.433-61.885-0.088-123.775-0.059-185.66-0.053-62.931 0.006-125.859-0.065-188.79 0.054-16.209 0.031-28.992 10.461-31.944 25.327-2.747 13.836 5.010 28.435 18.867 33.779 5.343 2.060 11.467 3.068 17.238 3.076 123.424 0.17 246.852 0.184 370.279 0.072 19.425-0.018 33.422-10.748 35.537-26.296 2.204-16.205-6.371-29.864-22.207-34.526z" />
<glyph unicode="&#xe901;" glyph-name="ringing-phone" d="M778.49 346.611c-33.453 33.030-75.213 33.030-108.454 0-25.357-25.146-50.715-50.291-75.646-75.859-6.819-7.034-12.572-8.525-20.882-3.84-16.407 8.954-33.88 16.198-49.648 25.997-73.514 46.24-135.094 105.695-189.644 172.604-27.061 33.242-51.139 68.828-67.973 108.888-3.409 8.097-2.77 13.425 3.836 20.030 25.357 24.506 50.074 49.65 75.005 74.794 34.733 34.947 34.733 75.859-0.213 111.019-19.816 20.030-39.633 39.635-59.45 59.665-20.456 20.456-40.699 41.126-61.368 61.37-33.454 32.602-75.218 32.602-108.459-0.213-25.57-25.144-50.074-50.928-76.071-75.647-24.078-22.8-36.224-50.715-38.781-83.317-4.049-53.059 8.949-103.135 27.275-151.932 37.503-101.004 94.609-190.714 163.86-272.966 93.543-111.232 205.198-199.238 335.818-262.739 58.811-28.55 119.755-50.502 186.020-54.125 45.6-2.554 85.235 8.954 116.986 44.538 21.734 24.294 46.234 46.451 69.248 69.683 34.093 34.515 34.304 76.282 0.429 110.374-40.486 40.704-81.184 81.19-121.888 121.677zM737.798 516.396l78.63 13.425c-12.358 72.237-46.451 137.655-98.234 189.649-54.758 54.764-124.012 89.284-200.295 99.938l-11.080-79.055c59.024-8.31 112.721-34.947 155.126-77.351 40.058-40.061 66.266-90.776 75.853-146.605zM860.781 858.218c-90.778 90.775-205.626 148.096-332.41 165.782l-11.080-79.056c109.524-15.342 208.822-64.991 287.235-143.195 74.368-74.368 123.162-168.34 140.845-271.688l78.63 13.425c-20.672 119.756-77.133 228.431-163.219 314.732z" />
<glyph unicode="&#xe902;" glyph-name="settings" d="M511.885 707.47c-91.731 0-166.346-74.615-166.346-166.346 0-91.692 74.615-166.308 166.346-166.308 91.692 0 166.307 74.616 166.307 166.308 0 91.731-74.615 166.346-166.307 166.346zM511.885 453.586c-48.308 0-87.577 39.269-87.577 87.539 0 48.308 39.269 87.576 87.577 87.576 48.269 0 87.538-39.269 87.538-87.576 0-48.27-39.269-87.539-87.538-87.539zM926.767 683.316c-25.962 0-72.688 5.577-94.153 42.769-21.457 37.307-2.804 80.577 10.272 103.115 12.887 22.347 16.266 48.501 9.46 73.615-6.806 25.154-22.882 46.077-45.347 58.885l-88.499 50.654c-39.961 23.692-92.154 10.115-116.846-30.962l-5.461-9.5c-13.039-22.5-41.346-60.231-84.385-60.231-43 0-71.077 37.769-84.039 60.346l-5.769 10c-24.307 40.5-76.615 54-116.5 30.346l-88.5-50.654c-22.423-12.808-38.5-33.692-45.307-58.808-6.808-25.154-3.462-51.308 9.461-73.769 13.039-22.462 31.731-65.769 10.27-103.039-21.462-37.192-68.231-42.769-94.192-42.769-53.616 0-97.231-43.615-97.231-97.23v-90.077c0-53.615 43.615-97.23 97.231-97.23 25.961 0 72.73-5.577 94.192-42.769 21.461-37.307 2.807-80.577-10.27-103.115-12.923-22.383-16.269-48.542-9.461-73.693s22.923-46.072 45.269-58.77l88.539-50.688c39.923-23.851 92.154-10.153 116.808 30.917l5.538 9.468c13.039 22.536 41.346 60.306 84.346 60.306s71.077-37.77 84.115-60.542l5.693-9.689c16.23-27.081 44.884-42.157 74-42.157 14.538 0 29.193 3.773 42.5 11.697l88.538 50.609c46.308 26.466 62.425 85.851 35.769 132.695-13.036 22.462-31.649 65.693-10.193 102.962 21.465 37.192 68.191 42.769 94.153 42.769 53.618 0 97.233 43.615 97.233 97.23v90.077c0 53.615-43.615 97.23-97.233 97.23zM945.231 496.008c0-10-8.46-18.461-18.464-18.461-73.074 0-132.269-29.961-162.383-82.231-30.154-52.269-26.385-118.5 10.116-181.497 5.038-8.846 2.077-20.078-6.615-25.080l-89.693-51.31c-2.076-1.229-6.269-0.764-8.384 2.851l-5.346 9.153c-36.385 63.386-91.885 99.768-152.27 99.768-60.231 0-115.807-36.311-152.577-99.618l-5.115-8.846c-2.347-4.072-6.539-4.458-9.846-2.686l-88.615 50.767c-5.5 3.151-7.577 8.231-8.308 10.925-0.77 2.765-1.538 8.224 1.616 13.69 36.654 63.306 40.423 129.575 10.308 181.883-30.116 52.27-89.308 82.231-162.423 82.231-10.001 0-18.462 8.461-18.462 18.461v90.077c0 10 8.461 18.461 18.462 18.461 73.115 0 132.307 29.961 162.423 82.231s26.346 118.577-10.269 181.769c-3.193 5.538-2.424 10.999-1.654 13.769 0.731 2.731 2.807 7.846 8.346 11l89.731 51.346c2 1.154 6.307 0.693 8.308-2.615l5.422-9.385c36.385-63.385 91.885-99.769 152.27-99.769 60.307 0 115.885 36.308 152.538 99.577l5.192 8.962c2.423 4.038 6.615 4.423 9.846 2.539l88.577-50.654c5.538-3.154 7.615-8.269 8.346-11.039s1.538-8.192-1.616-13.615c-36.692-63.308-40.461-129.577-10.308-181.884 30.113-52.27 89.309-82.231 162.383-82.231 10.004 0 18.464-8.461 18.464-18.461v-90.077z" />
<glyph unicode="&#xe903;" glyph-name="chat" horiz-adv-x="1408" d="M16 1008h912c114.874 0 208-93.124 208-208s-93.126-208-208-208h-672c-132.548 0-240 107.452-240 240v176zM112 912v-80c0-79.529 64.471-144 144-144h672c61.856 0 112 50.144 112 112s-50.144 112-112 112h-816zM272 224c0 114.874 93.124 208 208 208h912v-176c0-132.55-107.45-240-240-240h-672c-114.876 0-208 93.126-208 208zM480 336c-61.856 0-112-50.144-112-112s50.144-112 112-112h672c79.526 0 144 64.474 144 144v80h-816z" />
<glyph unicode="&#xe904;" glyph-name="manager" horiz-adv-x="960" d="M480 1024c-52.742 0-104.299-15.64-148.152-44.941s-78.032-70.949-98.216-119.676c-20.183-48.727-25.464-102.345-15.175-154.073s35.687-99.244 72.981-136.538c37.294-37.294 84.81-62.692 136.538-72.981s105.347-5.009 154.073 15.175c48.727 20.183 90.374 54.362 119.679 98.216 29.299 43.853 44.941 95.41 44.941 148.152 0 70.724-28.096 138.552-78.106 188.562s-117.839 78.105-188.563 78.105zM480 597.333c-31.645 0-62.579 9.384-88.892 26.965s-46.819 42.57-58.929 71.806c-12.11 29.236-15.279 61.407-9.105 92.444s21.412 59.546 43.788 81.923c22.376 22.376 50.886 37.615 81.923 43.789s63.208 3.005 92.444-9.105c29.236-12.11 54.225-32.618 71.805-58.929s26.965-57.246 26.965-88.892c0-42.435-16.857-83.131-46.863-113.137s-70.703-46.863-113.137-46.863zM906.669 10.669c29.453 0 53.331 23.878 53.331 53.331 0 99.014-39.334 193.971-109.344 263.987-70.016 70.013-164.973 109.346-263.989 109.346h-213.334c-99.014 0-193.972-39.333-263.987-109.346-70.013-70.016-109.347-164.973-109.347-263.987 0-29.453 23.878-53.331 53.333-53.331h53.334v53.331c0 70.726 28.095 138.554 78.104 188.563s117.837 78.106 188.562 78.106h213.334c70.722 0 138.549-28.096 188.559-78.106s78.106-117.837 78.106-188.563v-53.331h53.338zM864 10.72h-768v106.56h768v-106.56z" />
<glyph unicode="&#xe905;" glyph-name="info" d="M512 924.444c-227.787 0-412.444-184.658-412.444-412.444 0-227.789 184.658-412.444 412.444-412.444 227.789 0 412.444 184.656 412.444 412.444s-184.656 412.444-412.444 412.444zM14.222 512c0 274.915 222.863 497.778 497.778 497.778s497.778-222.863 497.778-497.778c0-274.916-222.862-497.778-497.778-497.778s-497.778 222.862-497.778 497.778zM478 426.667h68.889v3.334c0 18.887 13.334 34.444 45.558 56.666 46.666 33.333 65.553 64.444 65.553 107.778 0 70-56.667 117.778-141.111 117.778-87.778 0-148.889-53.333-156.667-135.555l74.444-14.445c4.445 52.222 35.556 83.334 81.112 83.334 37.778 0 62.224-21.111 62.224-56.667 0-25.556-8.892-38.889-45.558-67.777-45.556-36.667-56.667-55.556-54.445-94.445zM465.778 284.444h96.667v97.781h-96.667v-97.781z" />
<glyph unicode="&#xe906;" glyph-name="spec-property" horiz-adv-x="884" d="M867.998 677.021c0 72.727-31.632 128.728-93.091 166.546-79.998 49.091-158.543 97.091-239.272 145.091-62.906 37.455-127.636 39.273-186.908 5.455-77.091-44.363-157.454-92.727-260.364-157.818-49.455-31.273-77.091-78.182-80.364-135.637-2.182-39.636-1.818-80-1.091-119.273 0-16.364 0.364-32.363 0.364-48.728h-1.455v-49.455c0-34.546 0-69.092 0-103.27 0-74.184 32.727-131.272 96-169.458 29.818-18.181 59.636-35.998 89.455-54.179 48.364-29.454 96.364-58.545 144.727-87.636 33.455-20.001 67.273-30.185 101.091-30.185s65.819 9.821 98.545 29.091c77.093 45.456 154.545 93.091 229.455 138.91l9.816 6.181c61.459 37.455 92.728 93.454 93.091 166.544 0.368 99.277 0.368 199.639 0 298.911v-1.091zM400.364 117.383c0 0 0 0 0-0.363-1.455 0.731-3.273 1.457-4.727 2.183-6.182 2.546-12 5.092-17.455 8.364-86.909 52.364-165.091 99.635-244 148.001-36.727 22.547-55.273 55.273-55.636 97.452-0.364 75.636-0.364 152.367 0 226.547v80.364c0 0 0 2.909 0 4.364l2.182-1.455c5.454-3.273 10.909-6.182 16-9.454 100-60.364 199.636-120.728 299.272-181.456 2.182-1.452 4.364-4.724 4.364-6.544 0-122.545 0-245.453 0-368.002zM478.548 119.203c0 0-3.64-1.452-5.455-2.546v86.547c0 91.634 0 183.636 0 275.274 0 8.36 2.178 11.999 9.816 16.724 74.547 44.73 149.090 90.183 223.637 135.274l70.907 42.909c4.003 2.545 8.364 5.091 12.73 7.636l4.724 2.909c0-2.546 0-5.091 0-7.636v-49.819c0-82.909 0-166.183 0-249.090 0-45.456-19.27-80.365-57.451-103.638-80.002-48.728-160-97.089-240.365-145.455-5.818-3.635-11.999-6.181-18.911-9.453l0.368 0.363zM102.909 754.476c2.909 2.182 5.455 4.728 8 6.909 8 6.909 15.636 13.818 24 18.909 90.545 55.636 170.182 103.636 242.909 147.273 38.545 22.909 78.909 22.909 116.727 0.364 83.274-49.455 166.907-100.728 245.090-148.728 8.001-5.091 15.276-11.636 23.273-18.182 2.546-2.182 5.092-4.727 8.001-6.909l-140.362-85.091c-58.545-35.637-119.273-72-178.547-108.727-10.909-6.911-19.273-6.548-30.545 0-75.636 46.182-151.636 92.363-227.637 138.182l-79.636 48.364c-2.909 1.818-5.455 3.273-8.727 5.455l-2.546 1.455v0.727z" />
<glyph unicode="&#xe907;" glyph-name="spec-term" horiz-adv-x="977" d="M944.365 742.882c-27.276 118.182-103.638 196.727-220.002 227.636-104.727 28-202.184 3.637-281.455-69.454-89.091-82.182-118.909-185.818-88-307.637 1.455-5.091 0.728-6.182-2.182-9.091-105.455-104.728-210.182-209.818-315.273-315.271-5.091-5.092-9.455-10.547-13.818-16.002l-7.636-9.453v-173.819l25.091-25.088h173.818l8.727 6.907c5.091 3.998 9.818 8.001 14.545 12.362 4 4.003 8 8.001 12 11.999 4 4.366 8.364 8.727 12.727 12.73 12.727 11.273 17.455 25.451 14.181 43.273-1.091 6.907-1.818 14.178-2.545 21.453v1.452l6.909 0.731c10.182 1.089 20 1.815 29.818 2.546 30.545 2.541 41.818 14.178 44.364 44.726 0.727 10.179 1.818 20.727 2.909 31.274v5.087h2.909c7.637-0.726 14.546-1.452 21.819-2.541 15.636-2.183 26.909 0.363 35.273 7.633 8.363 7.275 12 18.181 12.363 34.183v34.183h4.727c10.182 0 20 0 30.181 0 14.182-0.731 24.73 4.361 34.546 14.182 10.547 10.543 21.090 21.090 32 31.632 8.727 8.727 17.455 17.091 25.819 25.819l-6.544 6.549 9.090-5.818c27.271-8.364 54.542-12.73 81.091-12.73h1.452c94.548 0 172.726 34.546 232.727 102.912 68.729 78.545 92.002 168.725 69.092 268.362l-0.726-0.727zM358.546 311.608h-1.819c-8.727 1.094-16.727 2.183-25.091 2.909-23.273 2.183-38.909-11.273-41.091-34.546l-1.819-16.724c-1.091-11.273-2.182-22.547-3.273-34.909-17.818-1.457-36-3.272-53.818-5.092-20.727-2.183-34.182-17.455-32.727-38.181 1.091-15.272 2.909-30.548 5.091-46.182 0.728-4.729 0-7.275-3.636-11.273-6.909-8.364-14.909-11.273-26.909-10.91-13.091 0.363-26.182 0.731-39.273 0.731-9.091 0-18.182 0-27.272 0h-18.909v29.454c0 22.542 0 44.726 0 67.272 0 3.272 0.727 5.092 3.273 7.633l115.636 115.638c69.818 69.818 140 139.636 209.819 209.455 15.272 15.274 19.273 31.637 12 52.001-36 101.818 0 211.273 90.18 272 86.91 58.909 206.545 50.182 284.365-20.727 86.91-79.273 103.275-202.909 39.638-300.365-40.001-61.091-97.82-96.363-172.367-104.364-34.178-3.635-68.724 0.731-102.544 13.093-18.907 6.907-34.546 3.272-48.361-11.273-20.001-20.364-40.364-40.364-61.093-60.365-1.091-1.089-3.636-2.183-5.454-2.183-12 0-24 0-35.637 0h-19.636c-23.637 0-38.182-14.909-38.546-38.544 0-9.453 0-18.907 0-28.728v-5.087l-0.727-0.731z" />
<glyph unicode="&#xe908;" glyph-name="spec-total-cost" d="M753.091 1018.020c44.362 0 88.725 0.364 133.092 0 59.271-0.727 104.364-39.636 113.818-98.182 1.089-6.545 1.089-13.454 1.089-20.364 0-83.636 0-167.273 0-250.909 0-64.728-22.91-119.274-68.361-164.726-134.549-134.549-269.093-268.73-403.638-403.274-50.548-50.544-119.273-50.181-169.455 0-98.909 98.909-197.454 197.818-296.364 296.727-49.454 49.455-49.454 118.547 0 168.001 134.546 134.908 269.091 269.817 403.634 404.363 45.093 45.454 98.909 68.364 162.183 68.364 41.453 0 82.548 0 124.002 0zM925.454 771.111c0 41.818 0 84 0 125.818 0 30.181-14.909 45.091-44.726 45.091-81.818 0-163.64 0-245.457 0-46.178 0-84.364-15.636-117.090-48.728-132.727-133.818-266.181-266.909-399.272-400.363-21.455-21.457-21.455-41.453 0-63.274 98.545-98.546 196.727-197.455 295.273-296.001 20-20.001 40.727-20.001 61.089 0 134.912 134.549 269.456 269.093 404.364 403.638 30.911 30.909 45.819 67.637 45.819 111.273 0 40.727 0 81.091 0 121.818v0.727zM725.816 859.838c63.274 0 114.185-52 113.822-114.546-0.731-63.272-52.001-113.818-115.274-113.455-62.543 0-113.818 52.364-113.091 115.273 0.726 62.545 52.001 113.091 114.544 112.727zM763.271 746.384c0 20.727-17.455 37.818-38.544 37.455-21.090 0-37.818-17.455-37.455-38.546 0-21.091 17.455-37.818 38.181-37.454 21.094 0 37.818 17.455 37.455 38.545h0.363z" />
<glyph unicode="&#xe909;" glyph-name="spec-total-square-ground" d="M1008.1 791.397c-11.636 52.364-55.273 93.818-106.179 101.091-56.003 8-107.273-17.455-133.818-66.546-1.457-2.545-4.003-4-6.912-3.273-23.273 4.364-46.545 8-70.181 12l-32.363 5.454-48.365 7.637-73.090 12.363-48.361 8-149.456 25.091c-22.182 3.636-43.636 7.273-65.455 10.909-1.455 1.455-2.545 2.546-4 4.364-8 47.273-34.546 80.727-78.182 99.637-7.273 2.909-14.545 5.091-21.818 6.909-3.273 0.727-51.273 14.182-101.455-20.727-28.727-20.364-43.273-48.727-49.091-74.909-6.182-28-4-57.818 7.636-84 17.091-38.545 47.273-63.272 93.818-73.454 0 0 0.727-0.728 1.091-1.091l41.818-335.272c6.182-50.544 12.727-101.455 19.273-151.999 0.364-3.272-1.091-6.181-4-7.638-38.182-21.090-68.727-55.999-72.727-99.272-7.636-82.544 54.545-146.181 130.182-146.181 2.182 0 4 0 6.182 0 63.636 2.909 115.636 53.816 121.091 118.179 0.364 5.818 1.455 6.912 7.636 8.727 69.091 17.818 137.82 36.003 206.544 54.184l132.003 34.546 2.546-4.366c30.543-46.909 88.362-67.998 143.635-52.364 53.090 15.276 92.002 65.457 92.728 119.636 0.726 53.457-23.273 93.459-70.912 118.91-2.909 1.457-4.724 5.092-4.361 8.364 10.91 79.639 19.638 144.728 26.908 204.728 0.726 5.818 1.457 6.545 8.364 7.636 33.82 7.273 62.548 27.273 81.455 56.364 18.544 28.727 24.73 62.545 17.455 95.272l0.363 1.091zM143.373 833.215c-30.181 0-54.545 24.727-54.909 54.909 0 14.545 5.818 28.364 16.364 38.909s24.364 16.364 38.545 16.364h0.364c14.545 0 28.363-6.182 38.909-16.727s16-24.364 15.636-38.909c-0.364-30.182-25.091-54.545-54.909-54.545zM235.737 95.032c-14.545 0-28.364 5.818-38.909 16.365s-16.364 24.362-16.364 38.907c0 14.545 6.182 28.365 16.727 38.912 10.546 10.179 24 15.635 38.182 15.635h0.727c30.182-0.363 54.546-25.456 54.182-55.273 0-30.18-24.727-54.547-54.909-54.91l0.364 0.363zM691.009 308.489c-0.363 0-1.815-0.731-3.272-1.094-112.728-29.817-225.818-59.634-338.545-89.451-3.636-1.094-4-0.731-5.455 1.815-13.818 22.547-33.455 38.912-57.818 48.728-7.273 2.909-14.909 5.092-22.182 7.27-2.182 0.731-4 1.094-6.182 1.82l-41.091 328.728c-6.546 53.454-13.455 106.909-20.364 160-0.364 3.637-0.364 4 3.273 5.818 22.545 10.546 40.727 26.909 54.182 48.728 6.546 10.545 6.546 10.545 20 8.364 17.455-2.909 34.909-5.818 52.364-8.727l425.092-71.637c0 0 2.546-2.545 3.998-4 5.092-31.636 19.274-57.455 42.91-76.727 7.27-6.182 15.272-11.273 23.273-16.364 2.546-1.455 5.092-3.273 7.27-4.727l-28.723-214.91c0 0 0-0.726-0.731-0.726-62.543-12.362-102.907-57.456-107.999-121.093v-1.815zM875.008 302.671c-1.089-29.822-25.451-53.821-54.542-53.821h-1.094c-14.909 0-28.728 6.544-39.27 17.455-10.184 10.547-15.639 24.367-15.272 38.912 0.363 14.909 6.544 28.723 17.818 38.907 10.179 9.816 23.273 14.909 37.087 14.909 0.731 0 1.457 0 1.82 0 29.817-1.089 54.547-26.908 53.453-56.362zM919.375 725.579c-10.547-10.182-24.003-15.636-37.818-15.636h-1.094c-30.18 0.727-54.542 25.454-54.179 55.273 0 14.545 6.181 28.727 17.091 39.273 10.543 10.182 23.999 15.272 38.907 15.636 29.817-0.727 54.547-26.181 54.184-55.636 0-14.909-6.186-28.727-17.091-39.273v0.364zM677.558 644.851c-14.545 14.909-36.366 16.728-51.274 3.273-10.91-9.818-20.364-20.727-30.548-30.909-2.541-2.182-5.087-4.727-7.633-6.909-34.183-34.182-68.366-68.363-102.544-102.546-5.455-5.455-8.364-5.092-13.093 0-5.818 6.544-12.727 12.362-18.909 18.548-9.091 9.090-17.818 18.907-27.273 27.634-14.182 13.455-37.455 13.455-51.637 0-14.181-13.089-16-37.818-2.545-52.364 24.364-25.456 50.182-50.181 75.273-74.91 14.545-20.001 39.999-22.91 55.27-7.997 33.094 31.632 64.731 64.726 97.094 97.089 26.545 26.182 53.090 52.363 79.272 78.909 13.093 13.091 11.636 36-1.452 49.818v0.364z" />
<glyph unicode="&#xe90a;" glyph-name="spec-total-square" d="M752.365 1018.182h-477.093c-137.454 0-249.091-111.636-249.091-249.091v-477.093c0-137.453 111.636-249.088 249.091-249.088h477.093c137.453 0 249.088 111.635 249.088 249.088v477.093c0 137.454-111.635 249.091-249.088 249.091zM928.726 291.998c0-97.089-78.909-176.361-176.361-176.361h-477.093c-97.091 0-176.364 78.909-176.364 176.361v477.093c0 97.091 78.909 176.364 176.364 176.364h477.093c97.089 0 176.361-78.909 176.361-176.364v-477.093zM665.819 642.182c-14.545 14.909-36.366 16.728-51.274 3.273-10.906-9.818-20.364-20.728-30.543-30.909-2.546-2.182-5.092-4.727-7.638-6.909-34.183-34.182-68.361-68.365-102.544-102.544-5.455-5.455-8.364-5.092-13.091 0-5.818 6.544-12.727 12.362-18.909 18.544-9.091 9.090-17.818 18.907-27.273 27.634-14.182 13.457-37.455 13.457-51.636 0-14.182-13.089-16-37.814-2.546-52.359 24.363-25.456 50.182-50.185 75.273-74.91 14.545-20.001 39.997-22.91 55.274-8.001 33.089 31.637 64.726 64.726 97.089 97.089 26.545 26.182 53.090 52.365 79.272 78.911 13.093 13.091 11.636 36-1.452 49.818v0.364zM257.455 725.091l92-92 46.545 46.545-93.091 93.091h85.091v61.455h-192v-192.364h61.454v83.273zM764.728 335.635l-92.002 92.002-46.545-46.545 93.091-92.728h-85.090v-61.454h192v192h-61.454v-83.274z" />
<glyph unicode="&#xe90b;" glyph-name="spec-year-income" d="M525.135 1015.656c12.362 0 24.73 0 37.455 0 23.273-0.364 40.727-18.545 40.364-41.091 0-21.455-18.548-38.182-41.090-39.273-34.183-1.455-68.729-0.364-102.547-5.091-165.455-22.182-303.273-150.909-339.637-314.182-51.636-232.001 97.455-455.638 331.636-497.454 224.728-40.364 443.635 118.547 476.362 344.725 6.186 42.91 5.455 85.457-2.541 128.002-5.818 32.364 10.543 56 38.907 56.727 20.727 0.364 38.181-13.454 42.179-33.818 51.274-263.272-125.817-525.816-388.724-576.001-272.001-52.001-526.546 119.273-581.819 391.275-52.727 259.636 121.818 522.181 382.182 575.635 14.545 2.909 29.454 5.818 44.364 7.273 20.729 2.182 41.819 2.909 62.909 4.364 0 0 0-0.727 0-1.091zM561.864 321.475c0-14.545 0-28.002 0-41.821 0-25.088-17.818-43.273-41.090-43.273s-40.727 18.548-41.095 43.273c0 13.819 0 27.276 0 37.818-22.543 9.458-44.725 16.002-63.634 27.276-32 18.544-52.364 47.272-58.545 84.727-4.364 27.271 9.454 49.091 33.818 53.090s44-12.726 47.636-40.364c1.818-13.452 9.818-23.273 21.454-28.728 40.365-18.181 81.819-18.907 121.457 0 26.908 12.73 27.271 36.366 2.541 53.457-19.633 13.452-42.179 15.635-65.089 15.998-35.272 0-69.091 5.818-100 23.636-23.636 13.456-41.818 32.731-52.727 57.82-18.182 40.364-10.545 77.091 16.727 110.181 24.727 29.818 57.455 45.091 96.729 50.546 0 14.545 0 29.091 0 43.273 0 25.091 17.455 43.273 40.727 43.636 23.273 0 41.090-18.182 41.453-42.909 0-14.545 0-29.091 0-44 38.544-5.091 70.544-20.727 95.637-49.091 16.724-18.909 25.819-41.454 27.271-66.545 1.457-22.909-15.272-42.182-37.455-44.364-22.179-1.818-42.543 14.182-44.362 37.091-1.457 17.091-10.547 28.363-25.093 34.182-38.181 15.273-76.726 15.273-115.271 0-13.091-5.091-24.364-14.909-24.364-30.182 0-16 10.909-26.909 25.091-30.909 18.181-5.455 37.455-7.273 56.362-10.545 26.545-4.364 53.457-6.909 79.276-13.453 22.179-5.455 40.727-19.638 55.999-37.092 44.362-50.544 37.818-120.73-15.639-161.82-19.633-15.272-42.543-23.636-66.541-29.091-3.64-0.726-7.275-1.452-11.636-2.546l0.363 0.731zM767.679 871.656c44.367 44 86.91 86.545 129.457 128.364 5.455 5.455 11.273 10.909 18.181 14.182 17.455 8.727 38.912 2.545 50.181-13.091 12.004-16.364 10.91-37.818-3.998-53.091-21.453-22.182-43.636-43.636-65.452-65.455-22.547-22.545-45.456-45.454-70.549-70.545 22.91 0 42.547 1.091 62.548-0.364 10.179-0.728 21.090-4.364 29.091-10.182 13.819-10.182 17.818-25.455 12.726-42.546-5.092-16.364-18.907-28.727-35.635-28.727-57.093-0.728-113.818-0.728-170.91 0-21.090 0-37.818 18.182-38.181 39.636-0.363 55.636-0.363 111.272 0 166.909 0 22.545 18.544 39.636 40.364 40 22.547 0 40.727-17.091 41.453-40.364 0.363-10.545 0-21.454 0-32 0-10.182 0-20.364 0-32.727h0.726z" />
<glyph unicode="&#xe90c;" glyph-name="spec-yield" horiz-adv-x="1164" d="M1110.184 82.911h-1073.456c-20.364 0-36.727-16.365-36.727-36.729s16.364-36.729 36.727-36.729h1073.456c20.364 0 36.724 16.365 36.724 36.729s-16.361 36.729-36.724 36.729zM669.454 143.998h208.365c35.998 0 65.452 29.459 65.452 65.457v743.273c0 36-29.454 65.455-65.452 65.455h-208.365c-35.998 0-65.452-29.455-65.452-65.455v-743.273c0-35.998 29.454-65.457 65.452-65.457zM677.455 945.455h192.363v-727.999h-192.363v727.999zM254.909 144.365h234.544c29.091 0 52.364 23.636 52.364 52.364v501.816c0 29.091-23.636 52.364-52.364 52.364h-234.544c-29.091 0-52.364-23.636-52.364-52.364v-501.816c0-29.091 23.637-52.364 52.364-52.364zM468.364 677.818v-459.999h-192.364v459.999h192.364z" />
<glyph unicode="&#xe90d;" glyph-name="marker-supermarket" horiz-adv-x="1210" d="M1149.673 597.644c0 46.545 0 94.022 0 140.567 0 13.964-3.724 27.927-10.24 40.029l-123.811 213.178c-12.102 21.411-32.582 32.582-57.716 32.582-255.069 0-511.069 0-766.138 0-25.135 0-44.684-11.171-56.785-32.582l-124.742-214.109c-6.516-11.171-10.24-24.204-10.24-37.236 0-48.407 0-95.884 0-144.291 0-60.509 26.065-110.778 74.473-147.084v-361.193c0-44.684 20.48-66.095 66.095-66.095h872.262c40.029 0 62.371 22.342 62.371 62.371v363.985c47.476 36.305 73.542 87.505 74.473 148.945v0.931zM186.182 134.051v278.342c53.062 0 92.16 15.825 128.465 52.131 35.375-35.375 79.127-53.062 130.327-53.062 50.269 0 94.953 17.687 129.396 53.062 35.375-34.444 79.127-53.062 129.396-53.062s94.953 18.618 130.327 53.062c35.375-35.375 79.127-53.062 128.465-53.062v-277.411h-776.378zM964.422 523.171c-34.444 0-66.095 25.135-72.611 58.647-0.931 5.585-1.862 11.171-1.862 15.825-1.862 32.582-29.789 57.716-56.785 54.924-30.72 0-53.062-23.273-54.924-56.785s-22.342-60.509-53.062-69.818c-21.411-6.516-45.615-2.793-64.233 11.171-18.618 13.033-29.789 33.513-29.789 55.855 0 23.273-13.964 44.684-33.513 53.993-7.447 3.724-14.895 5.585-22.342 5.585-11.171 0-22.342-3.724-32.582-11.171-15.825-12.102-22.342-32.582-23.273-46.545-1.862-40.96-34.444-72.611-74.473-72.611s-72.611 31.651-73.542 71.68c-1.862 39.098-26.996 51.2-38.167 53.993-14.895 3.724-35.375 3.724-51.2-8.378-14.895-12.102-21.411-30.72-22.342-44.684-1.862-41.891-38.167-73.542-77.265-72.611-36.305 0-67.956 30.72-71.68 67.956v97.745h926.255c0 0 0-6.516 0-10.24 0-33.513 1.862-67.025-1.862-99.607-2.793-29.789-35.375-55.855-70.749-56.785v1.862zM217.833 912.291c238.313 0 476.625 0 714.938 0 21.411-37.236 42.822-73.542 64.233-110.778h-843.404c21.411 37.236 42.822 73.542 64.233 110.778z" />
<glyph unicode="&#xe90e;" glyph-name="parts-available" d="M899.807 478.956h-401.39v402.087h-4.523c-9.39 0.696-18.784 1.044-28.173 1.044-177.74 0.348-334.609-102.261-405.218-266.435-76.522-177.74-26.783-381.912 123.13-507.824 81.044-67.829 180.174-102.262 280-102.262 82.784 0 165.915 23.65 239.652 71.653 162.785 106.086 208.001 279.997 197.218 397.214v4.523h-0.695zM831.283 411.132c-4.519-100.526-70.954-236.174-208.696-301.915-130.088-62.259-288.347-41.739-396.173 50.781l149.565 149.219c32.348 32.349 64.695 64.695 97.393 97.044 2.783 2.435 6.954 4.519 9.39 4.519 102.262 0 204.52 0 306.781 0h40.003c0 0 1.042 0 1.389 0l0.347 0.352zM229.893 731.13c59.478 50.782 144 78.956 200.696 81.043v-281.389l-200.696 200.346zM413.545 444.87l-235.479-235.133c-100.174 115.48-126.609 320.695 0 470.609l235.479-235.477zM886.263 873.397c-90.090 88.348-212.177 133.913-334.959 124.522h-4.172v-470.608h470.261v4.172c7.302 130.436-39.304 251.828-131.482 341.914h0.352zM613.216 929.745c186.435-7.304 325.565-180.87 336.348-335.652h-336.348v335.652z" />
<glyph unicode="&#xe90f;" glyph-name="spec-average-m-cost" d="M862.081 699.211c-65.602 100.16-166.719 167.36-284.479 188.8-135.041 24.64-257.282-8.32-362.562-98.56-81.6-70.080-131.2-160.96-147.2-270.079-0.96-7.041-1.92-14.082-2.56-21.443l-1.28-10.24v-54.399l1.92-14.721c1.28-10.879 2.88-21.438 4.8-32.317 18.88-105.279 71.040-193.602 154.24-262.083 65.6-53.76 142.72-86.077 229.761-95.359 3.518-0.319 7.361-0.958 10.879-1.278l60.158-0.643 15.684 1.921c10.559 1.282 21.438 2.879 31.998 4.481 168.641 28.479 308.482 159.998 347.841 327.041 27.841 117.76 6.722 238.080-59.199 338.878zM867.201 460.493c0-98.243-38.719-190.722-108.802-260.481-69.759-69.439-161.599-107.52-259.518-107.52h-1.282c-202.879 0.639-367.999 166.081-367.999 368.64 0 98.238 38.4 190.72 108.16 260.48s161.92 107.84 260.162 107.84h0.319c98.238 0 190.718-38.72 260.477-108.48 69.763-69.76 107.839-162.24 107.839-260.479h0.643zM599.359 385.061c0 20.066 0 41.366-1.589 61.841-2.777 32.764-18.252 49.553-30.949 58.155-18.256 12.284-43.254 14.742-66.269 6.554-9.921-3.686-18.252-9.421-26.19-15.155-11.112 11.469-26.19 18.018-44.442 19.657-13.492 1.229-26.192-0.819-38.096-6.14l-71.824 1.638v-223.609h72.618v143.335c6.746 8.192 12.698 12.698 19.444 14.746 5.554 1.638 7.143 0.819 7.143 0.819s1.585-1.229 2.38-7.373c0.795-5.734 1.192-11.465 1.192-16.79v-134.738h73.011l-1.188 141.287c5.157 5.734 9.523 10.65 14.283 13.926 7.541 4.915 11.907 4.915 12.702 4.096 0.791-0.41 3.572-4.096 3.965-14.336v-144.974h73.81v33.989c0 13.517 0 27.030 0 40.546v22.524zM658.485 580.411c9.921 12.288 15.077 28.258 13.095 43.821-1.589 14.744-8.331 27.439-19.444 35.63-18.649 14.334-40.874 15.972-63.095 4.914-19.046-9.419-28.967-27.439-29.364-53.24v-15.561h36.905c-2.38-2.458-4.764-4.915-7.541-6.963-6.349-6.144-13.095-12.288-19.046-18.842-10.318-11.465-14.684-27.030-12.3-43.819l1.982-13.107h111.505v56.517h-22.618c3.174 3.277 6.349 6.554 9.126 10.24l0.795 0.41z" />
<glyph unicode="&#xe910;" glyph-name="spec-fund-year-income" d="M511.042 0.958c-138.881 0-245.762 0-384.641 0-57.6 0-94.4 36.803-94.4 94.401 0 164.479 0 328.962 0 493.441 0 56.96 36.8 94.080 93.76 94.080 278.4 0 493.121 0 771.522 0 56.959 0 93.757-36.8 93.757-94.080 0-164.479 0-328.962 0-493.441 0-57.917-36.798-94.72-94.401-94.72-139.198 0-246.399 0-385.597 0v0.319zM755.2 69.12c8.319 43.201 26.878 79.999 57.278 110.399s67.203 48.959 110.080 57.278v12.161c0 62.083 0 124.162 0 186.561 0 8.643-1.917 12.481-11.198 14.721-52.482 11.837-93.762 40.641-124.158 84.799-16.642 23.998-26.563 50.561-32.322 79.041h-486.4c-21.12-90.882-76.8-146.559-167.36-167.682v-209.92c2.56-0.639 4.48-0.958 6.4-1.597 82.88-20.48 136-71.68 157.44-154.239 2.24-9.282 5.44-12.161 15.36-12.161 175.679 0.319 287.681 0 463.358 0h11.842l-0.319 0.639zM196.8 614.72c-26.24 0-51.52 0-77.12 0-10.24 0-18.56-7.041-18.88-16.638-0.64-26.243 0-52.802 0-79.36 42.56 6.717 88.32 52.478 96.32 96.319l-0.32-0.32zM922.882 518.398c0 26.243 0 51.843 0 77.124 0 9.916-6.083 18.239-15.684 18.559-26.558 0.959-53.436 0.319-80.318 0.319 7.041-42.562 52.802-88.322 96.322-96.002h-0.319zM196.8 69.12c-8 44.478-58.88 94.401-96.32 95.359 0-25.6 0-50.881 0-76.481 0-10.879 8-18.559 19.2-18.878 25.6-0.319 50.88 0 77.12 0zM826.88 69.12c26.239 0 51.2 0 76.481 0 11.198 0 19.522 7.361 19.522 18.239 0.639 25.919 0 51.519 0 77.439-40.641-4.477-90.243-54.079-96.002-95.998v0.319zM477.442 849.28c0 25.6 0 48.96 0 72.32 0 22.4 0 44.8 0 67.2 0.319 20.16 15.036 35.2 34.558 35.2 18.878 0 33.599-15.36 33.599-35.2 0-41.92 0-83.84 0-125.76 0-3.84 0-7.68 0-14.080 15.999 10.56 30.401 20.8 45.122 29.76 6.078 3.84 13.119 7.36 20.161 8.32 15.041 1.92 29.118-7.36 34.558-21.44 5.12-13.44 1.921-29.76-10.24-38.4-35.521-24.64-71.68-48.32-107.839-72-10.559-7.040-22.721-6.080-33.28 0.64-34.882 23.040-70.078 46.080-104.64 69.76-15.68 10.56-18.88 31.040-8.64 46.4 10.24 15.68 30.078 20.16 46.72 9.92 8.319-5.12 15.999-10.56 23.998-15.68s16.003-10.56 25.924-17.28v0.32zM510.722 171.52c-94.081 0.319-170.242 77.439-169.602 171.52 0.32 93.762 77.442 169.918 171.839 169.279 93.762-0.319 169.923-77.758 169.279-172.159-0.639-93.442-77.758-169.279-171.196-168.96l-0.319 0.319zM613.761 341.762c0 56.32-45.761 102.396-101.761 102.719-56.32 0-102.4-45.761-102.72-101.761 0-56.32 45.761-102.4 101.761-102.719 56.32 0 102.4 45.761 102.719 101.761z" />
<glyph unicode="&#xe911;" glyph-name="save" horiz-adv-x="951" d="M862.698 745.643l-57.395 63.964c-28.679 31.75-57.322 63.536-85.5 95.678-32.714 37.393-73.536 55.572-124.857 55.572h-1.072c-88.678-0.5-177.428-0.429-266.035-0.393l-140.572 0.036c-18.785-0.036-37.643-0.821-56.392-2.036-63.893-4.107-115.857-50.821-126.429-113.536-2.857-16.821-4.214-35.536-4.25-58.821-0.286-177.929-0.214-355.893-0.071-533.859 0-19.858 0.821-39.643 2.071-59.429 3.857-61.572 52.429-115.427 112.928-125.213 17.608-2.853 35.643-4.067 53.5-4.14 62.25-0.285 124.464-0.285 186.5-0.219l354.643 0.073c18.75 0.073 37.503 0.856 56.286 1.931 39.461 2.428 73.033 20.144 99.855 52.787 27.502 33.499 31.254 71.856 31.291 104.997 0.249 143.037 0.212 286.109 0.066 429.18-0.037 36.25-11.674 67.679-34.567 93.429zM723.732 305.393c-0.394 22.857-1.393 47.322-6.215 71.25-11 54.286-61.893 98.858-118.393 103.75-19.25 1.679-38.643 2.393-57.964 2.428-73.928 0.108-147.929 0.179-221.964-0.393-49.107-0.393-88.392-19.75-116.786-57.464-17.679-23.428-26.892-50.428-27.393-80.25-0.643-41.321-0.964-82.607-1.286-123.896l-0.321-41.428c-14.714 0.79-29.214 1.646-43.357 4.432-8.393 1.712-10.965 11.14-11.75 16.501-1.464 10.211-1.893 20.641-1.893 30.852-0.143 187.182-0.107 374.289 0 561.432 0 9.678 0.857 19.392 1.75 29.071 1.072 11.678 9.179 19.785 20.75 20.714 13.821 1.107 27.679 1.821 41.607 1.821l421.143 0.072c11.357 0 19.286-3.429 26.5-11.5 47.072-52.571 94.322-104.999 141.822-157.178 7.929-8.75 11.323-17.893 11.249-30.643l-0.249-415.003c0-9.713-0.892-19.354-1.821-28.994-0.856-9.143-8.287-17.935-15.894-18.864-12.895-1.565-25.929-2.070-39.25-2.567l0.036 18.498c0.107 36.432 0.214 71.929-0.321 107.358zM289.946 205.89c0.178 43.505 0.357 86.932 1.25 130.431 0.464 22.464 8.143 29.714 31.75 29.858 46.928 0.321 93.858 0.393 140.822 0.393 40.929 0.036 82.393 3.035 123.036-1.965 11.285-1.428 18.714-8.999 18.928-19.357 1.001-46.5 1.25-93.068 1.464-139.572l0.143-25.644h-317.536l0.143 25.856z" />
<glyph unicode="&#xe912;" glyph-name="copy" horiz-adv-x="866" d="M0 866.462c0 87.006 70.532 157.538 157.538 157.538h315.077c87.006 0 157.538-70.532 157.538-157.538h-472.615v-630.154c-87.006 0-157.538 70.532-157.538 157.538v472.615zM236.308 630.154c0 87.006 70.532 157.538 157.538 157.538h315.077c87.008 0 157.538-70.532 157.538-157.538v-472.615c0-87.008-70.53-157.538-157.538-157.538h-315.077c-87.006 0-157.538 70.53-157.538 157.538v472.615zM708.923 630.154h-315.077v-472.615h315.077v472.615z" />
<glyph unicode="&#xe913;" glyph-name="notification-documents" horiz-adv-x="878" d="M18.286 804.571c0 111.088 90.055 201.143 201.143 201.143h438.857c111.089 0 201.143-90.055 201.143-201.143v-585.143c0-111.089-90.053-201.143-201.143-201.143h-438.857c-111.088 0-201.143 90.053-201.143 201.143v585.143zM219.429 896c-50.495 0-91.429-40.934-91.429-91.429v-585.143c0-50.498 40.934-91.429 91.429-91.429h438.857c50.495 0 91.429 40.931 91.429 91.429v585.143c0 50.495-40.934 91.429-91.429 91.429h-438.857zM237.714 731.429c0 30.297 24.561 54.857 54.857 54.857h292.571c30.297 0 54.857-24.561 54.857-54.857s-24.561-54.857-54.857-54.857h-292.571c-30.297 0-54.857 24.561-54.857 54.857zM237.714 512c0 30.297 24.561 54.857 54.857 54.857h219.429c30.297 0 54.857-24.561 54.857-54.857s-24.561-54.857-54.857-54.857h-219.429c-30.297 0-54.857 24.561-54.857 54.857z" />
<glyph unicode="&#xe914;" glyph-name="notification-common" horiz-adv-x="1117" d="M636.181 11.72c-32.084 21.383-40.753 64.735-19.365 96.819l253.454 380.18-253.454 380.181c-21.389 32.083-12.719 75.431 19.364 96.82s75.432 12.719 96.821-19.364l305.092-457.637-305.092-457.637c-21.389-32.088-64.737-40.755-96.82-19.363zM0 488.72c0 38.559 31.259 69.818 69.818 69.818h837.818c38.558 0 69.818-31.259 69.818-69.818s-31.26-69.818-69.818-69.818h-837.818c-38.56 0-69.818 31.259-69.818 69.818z" />
<glyph unicode="&#xe915;" glyph-name="notification" horiz-adv-x="910" d="M711.088 636.8c0-63.338 21.555-124.79 61.121-174.248l39.447-49.311c14.017-17.516 1.542-43.463-20.89-43.463h-671.36c-22.432 0-34.903 25.947-20.89 43.463l39.447 49.311c39.567 49.459 61.123 110.911 61.123 174.248v45.867c0 141.385 114.615 256 256 256 141.387 0 256.001-114.615 256.001-256v-45.867zM455.088 1024c-188.513 0-341.333-152.82-341.333-341.333v-45.867c0-43.961-14.961-86.613-42.424-120.941l-39.448-49.31c-58.712-73.39-6.46-182.105 87.524-182.105h671.36c93.986 0 146.239 108.715 87.524 182.105l-39.447 49.31c-27.46 34.328-42.422 76.98-42.422 120.941v45.867c0 188.513-152.821 341.333-341.334 341.333zM293.817 208.822c21.077 10.536 46.705 1.991 57.243-19.086 20.593-41.182 55.937-61.747 104.060-61.747s83.468 20.565 104.060 61.747c10.539 21.077 36.168 29.622 57.245 19.086 21.077-10.542 29.616-36.17 19.081-57.247-36.295-72.59-102.833-108.919-180.386-108.919s-144.088 36.329-180.384 108.919c-10.538 21.077-1.995 46.706 19.081 57.247z" />
<glyph unicode="&#xe916;" glyph-name="download-document" horiz-adv-x="945" d="M472.615 1004.308c32.627 0 59.077-26.45 59.077-59.077v-480.383l262.617 175.076c27.144 18.098 63.827 10.762 81.92-16.385 18.101-27.148 10.768-63.827-16.384-81.926l-387.23-258.154-387.232 258.154c-27.147 18.099-34.483 54.778-16.385 81.926s54.778 34.483 81.925 16.385l262.614-175.076v480.383c0 32.627 26.45 59.077 59.077 59.077zM19.692 118.154c0 32.626 26.45 59.077 59.077 59.077h787.692c32.626 0 59.077-26.451 59.077-59.077s-26.451-59.077-59.077-59.077h-787.692c-32.627 0-59.077 26.451-59.077 59.077z" />
<glyph unicode="&#xe917;" glyph-name="order-document" horiz-adv-x="805" d="M182.857 950.857c-60.594 0-109.714-49.121-109.714-109.714v-658.286c0-60.592 49.121-109.714 109.714-109.714h438.857c60.594 0 109.714 49.123 109.714 109.714v658.286c0 60.594-49.121 109.714-109.714 109.714h-438.857zM0 841.143c0 100.989 81.868 182.857 182.857 182.857h438.857c100.989 0 182.857-81.868 182.857-182.857v-658.286c0-100.988-81.868-182.857-182.857-182.857h-438.857c-100.989 0-182.857 81.869-182.857 182.857v658.286zM219.429 768c0 20.198 16.374 36.571 36.571 36.571h292.571c20.198 0 36.571-16.374 36.571-36.571s-16.374-36.571-36.571-36.571h-292.571c-20.198 0-36.571 16.374-36.571 36.571zM219.429 621.714c0 20.198 16.374 36.571 36.571 36.571h219.429c20.198 0 36.571-16.374 36.571-36.571s-16.374-36.571-36.571-36.571h-219.429c-20.198 0-36.571 16.374-36.571 36.571zM365.714 256c0 20.195 16.374 36.571 36.571 36.571h146.286c20.198 0 36.571-16.377 36.571-36.571s-16.374-36.571-36.571-36.571h-146.286c-20.198 0-36.571 16.377-36.571 36.571z" />
<glyph unicode="&#xe918;" glyph-name="delete-document" horiz-adv-x="931" d="M173.693 673.783c37.937 6.898 74.284-18.264 81.181-56.203l79.193-435.561c2.012-11.066 11.65-19.11 22.898-19.11h216.98c11.248 0 20.886 8.044 22.898 19.11l79.193 435.561c6.897 37.938 43.244 63.101 81.181 56.203s63.101-43.244 56.203-81.181l-79.192-435.562c-14.085-77.466-81.55-133.767-160.282-133.767h-216.98c-78.733 0-146.197 56.301-160.282 133.767l-79.192 435.562c-6.898 37.937 18.264 74.284 56.203 81.181zM69.818 884.364c0 38.559 31.259 69.818 69.818 69.818h651.636c38.559 0 69.818-31.259 69.818-69.818s-31.259-69.818-69.818-69.818h-651.636c-38.559 0-69.818 31.259-69.818 69.818zM372.364 930.909c0 51.413 41.679 93.091 93.091 93.091s93.091-41.678 93.091-93.091h-186.182z" />
<glyph unicode="&#xe919;" glyph-name="notification-cancelation" d="M512 1024c-282.309 0-512-229.691-512-512 0-282.346 229.691-512 512-512s512 229.654 512 512c0 282.309-229.691 512-512 512zM512 911.12c88.779 0 170.064-30.13 236.434-79.35l-556.214-556.212c-49.215 66.365-79.34 147.653-79.34 236.442 0 220.063 179.057 399.12 399.12 399.12zM512 112.881c-88.775 0-170.059 30.12-236.42 79.323l556.2 556.205c49.211-66.365 79.338-147.64 79.338-236.41 0-220.101-179.054-399.119-399.119-399.119z" />
<glyph unicode="&#xe91a;" glyph-name="view-list" horiz-adv-x="1365" d="M1365.333 0h-1024v170.667h1024v-170.667zM170.667 0h-170.667v170.667h170.667v-170.667zM1365.333 426.667h-1024v170.667h1024v-170.667zM170.667 426.667h-170.667v170.667h170.667v-170.667zM1365.333 853.333h-1022.037v170.667h1022.037v-170.667zM170.667 853.333h-170.667v170.667h170.667v-170.667z" />
<glyph unicode="&#xe91b;" glyph-name="arrow-back" d="M229.143 615.63h728.613v-119.719h-728.613l321.087-321.087-84.642-84.647-465.589 465.593 465.589 465.589 84.642-84.642-321.087-321.088z" />
<glyph unicode="&#xe91c;" glyph-name="icon-copter" d="M987.732 304.163c-20.586 39.873-50.895 69.695-90.12 88.822-56.406 27.394-113.461 28.041-174.080 1.784l-14.75-6.484-4.053 15.722c-0.647 2.593-1.135 5.026-1.62 7.457-0.487 2.916-1.135 6.158-1.946 7.455-7.942 13.615-17.019 29.014-27.392 42.306-26.096 34.038-26.096 83.474 0.324 114.917 13.939 16.695 26.745 33.391 29.987 54.462l0.971 6.969 13.453 8.266 6.322-3.566c90.606-40.36 193.53-11.833 250.098 69.534 49.76 71.643 45.384 171.649-10.697 237.943-62.728 74.235-158.845 94.982-244.75 52.354-39.549-19.612-69.372-49.922-88.498-89.958-27.23-56.892-27.554-114.433-1.135-176.025l7.457-17.506-18.964-1.782c-20.748-1.946-36.307-13.453-54.299-28.527-33.391-27.718-81.693-28.041-117.189-0.649-12.642 9.726-27.23 18.153-41.169 26.419-2.433 1.46-5.511 1.946-8.268 2.433-2.269 0.324-4.377 0.809-6.646 1.296l-15.72 3.889 6.482 14.911c48.626 111.191-2.916 209.74-71.156 254.475-78.125 51.219-177.483 41.818-247.018-23.178-65.807-61.43-82.015-161.437-38.576-238.104 24.475-43.114 58.513-73.748 100.979-90.929 53.164-21.557 106.328-20.261 162.249 4.377l17.99 7.942 1.298-19.614c1.296-20.097 12.804-34.361 25.934-51.057l6.32-7.942c23.665-30.796 22.53-80.394-2.431-110.705-15.073-18.153-27.879-33.714-29.823-55.757l-1.622-19.126-17.504 7.619c-111.678 48.464-210.55-4.053-254.961-73.263-52.192-81.205-42.142-176.026 26.096-247.667 60.134-63.214 162.734-78.287 238.266-35.172 41.495 23.665 71.156 57.215 88.175 99.359 21.557 53.649 20.099 107.137-4.538 163.219l-7.619 17.181 18.803 1.946c21.234 2.269 37.442 14.426 53.326 27.716 17.83 14.914 38.576 22.368 59.486 22.368 20.908 0 41.656-7.293 59.972-21.881l3.078-2.431c8.591-6.808 16.695-13.292 25.287-17.992 4.862-2.593 10.858-4.538 17.342-6.322 3.404-0.973 6.808-2.107 10.373-3.242l14.264-4.862-6.158-13.777c-20.748-46.518-24.476-94.009-11.184-141.177 13.777-48.787 42.303-86.878 84.445-113.297 78.612-49.275 174.406-40.036 243.939 23.503 65.97 60.457 82.663 155.116 41.171 235.51v-0.162zM692.087 941.159c0 0 0 0 0.162 0.162 0.811 0.81 1.622 1.621 2.431 2.431 1.784 1.621 3.729 3.080 5.511 4.7 1.946 1.621 3.727 3.404 5.835 4.863 1.946 1.621 3.891 2.918 5.835 4.376 2.271 1.621 4.54 3.404 6.971 5.025 3.078 1.945 6.158 3.89 9.239 5.673 1.135 0.648 2.107 1.297 3.242 1.945 44.896 24.637 96.602 26.906 142.635 6.808 1.458-0.648 2.916-1.297 4.377-1.945 2.593-1.297 5.186-2.431 7.78-3.728 28.365-14.75 52.029-37.28 67.914-64.996 0.324-0.486 0.647-0.973 0.809-1.459 1.622-2.918 3.242-5.997 4.702-9.077 0.971-1.945 1.944-4.052 2.916-5.997 0.811-1.945 1.458-3.89 2.269-5.835 1.296-3.404 2.593-6.646 3.729-10.049 0.324-0.972 0.647-1.945 0.809-3.080 1.296-4.538 2.595-9.077 3.566-13.777 0-0.162 0-0.324 0-0.486 8.268-40.036 1.622-82.501-20.423-118.484-25.772-42.953-70.345-73.425-122.374-79.747-7.131-0.973-14.264-1.458-21.234-1.458-27.877 0-54.784 7.131-77.476 19.773-0.649 0.326-1.135 0.649-1.784 0.973-0.811 0.487-1.62 0.973-2.593 1.46-28.365 16.37-51.382 40.684-66.132 70.021-28.688 54.46-25.608 136.475 30.96 191.908h0.324zM282.821 678.904c0 0-0.811-0.485-1.296-0.809-0.973-0.649-2.107-1.135-3.080-1.622-17.992-9.888-38.576-16.208-60.295-18.315 0 0-0.326 0-0.487 0-5.186-0.487-10.535-0.811-15.884-0.811 0 0-0.324 0-0.486 0s-0.324 0-0.486 0c-55.757 0-105.031 27.556-135.179 69.698-0.81 1.135-1.621 2.107-2.431 3.242-0.486 0.647-0.81 1.296-1.135 1.782-29.013 42.306-35.497 93.686-20.261 140.853 0 0 0 0.324 0 0.486 0 0 0 0.162 0 0.324 12.643 40.035 40.035 73.425 75.694 94.172 0.81 0.486 1.459 0.973 2.269 1.297 3.566 1.945 7.294 3.89 11.184 5.511 0.972 0.486 1.783 0.81 2.593 1.297 3.89 1.783 7.942 3.242 11.994 4.701 0.81 0.324 1.459 0.486 2.269 0.81 4.052 1.297 8.104 2.431 12.319 3.566 0.81 0.162 1.783 0.486 2.593 0.648 3.89 0.973 7.618 1.621 11.67 2.269 1.459 0.162 2.918 0.486 4.376 0.648 3.242 0.486 6.646 0.81 9.887 0.973 2.593 0.162 5.025 0.324 7.618 0.324 1.459 0 2.918 0.162 4.376 0.162 0.973 0 1.783 0 2.593 0 4.214 0 8.429-0.324 12.643-0.648 0.809 0 1.458 0 2.269-0.162 31.445-3.080 62.079-14.912 87.364-35.821 8.266-6.97 15.884-14.588 22.53-22.692 21.881-26.096 35.822-59.161 38.414-95.306 0.162-2.755 0.324-5.349 0.485-8.104 0-1.135 0.162-2.431 0.162-3.566 0-0.486 0-0.811 0-1.297 0-27.231-6.32-54.137-19.935-77.802-14.911-27.554-37.442-50.246-64.672-65.806h0.324zM317.993 95.234c-32.741-31.93-74.236-47.978-116.053-47.978-5.835 0-11.832 0.487-17.667 1.137-0.973 0-1.945 0.324-2.918 0.485-3.728 0.485-7.456 0.973-11.346 1.784-42.304 7.942-78.774 31.769-103.248 65.157-0.81 1.135-1.621 2.107-2.431 3.242-1.459 1.946-2.755 4.053-4.052 6.158-1.945 2.918-3.728 5.999-5.511 9.077-0.324 0.487-0.648 1.135-0.81 1.622-26.42 48.787-26.744 108.274 0.486 157.546 18.316 33.714 48.139 60.459 83.96 74.885 0.486 0.162 0.81 0.324 1.297 0.485 4.214 1.62 8.429 3.242 12.805 4.538 44.735 13.777 92.064 7.457 128.048-13.292 29.823-16.37 53.813-41.492 69.048-71.965 28.688-53.975 25.61-136.638-31.769-192.721l0.162-0.162zM628.226 351.005l-5.026-0.811-4.377 2.595c-2.269 1.296-4.538 2.431-6.808 3.566-5.835 3.080-12.481 6.484-18.153 11.67-22.206 20.099-46.195 31.283-73.263 34.363-38.738 4.538-71.803-6.16-101.14-32.418-8.753-7.78-25.123-22.368-48.626-14.588-14.103 4.538-24.637 14.911-29.014 28.203-4.377 13.13-1.946 27.392 6.322 39.387 2.431 3.566 5.511 6.808 8.428 10.050 1.784 1.944 3.566 3.889 5.188 5.835 40.358 51.218 37.603 119.943-6.484 167.111-13.292 14.262-18.153 31.607-13.292 47.491 4.377 14.75 16.857 26.419 31.607 29.823 23.665 5.511 39.387-9.239 44.575-14.1 17.342-16.372 37.765-27.068 60.457-31.769 42.953-8.753 79.909 1.135 112.974 30.472 8.591 7.617 23.015 20.423 44.411 15.884 15.884-3.404 28.365-14.264 33.067-29.176 5.024-15.399 1.135-32.094-10.375-44.898-16.208-17.83-26.096-34.2-31.119-51.38-14.103-47.491-5.188-88.5 27.23-125.454 7.457-8.591 23.015-26.259 13.615-51.22-5.997-15.884-20.908-27.392-39.873-30.634h-0.324zM950.288 124.733c-1.296-1.946-2.593-4.053-3.889-5.997-0.649-0.973-1.296-1.784-1.946-2.595-30.31-41.492-79.098-68.723-134.531-68.723-0.324 0-0.485 0-0.809 0-0.164 0-0.326 0-0.649 0-36.469 0-72.776 11.993-103.086 36.469-27.068 21.881-44.413 49.111-53.651 77.801-5.511 16.531-8.589 34.038-8.589 52.353 0 8.591 0.809 16.857 2.107 25.123 0 0.326 0 0.649 0 0.811 0.647 4.377 1.458 8.591 2.593 12.804 0.162 0.973 0.485 1.946 0.811 3.080 0.971 3.566 1.944 7.131 3.078 10.699 0.649 1.782 1.296 3.404 1.946 5.186 1.135 2.918 2.107 5.997 3.404 8.753 0.324 0.811 0.811 1.62 1.296 2.593 15.237 33.229 40.845 60.621 72.94 77.801 37.927 22.368 92.226 27.554 141.5 7.131 0.647-0.324 1.296-0.485 1.946-0.809 1.782-0.811 3.566-1.784 5.347-2.595 41.818-19.612 74.236-55.757 88.338-100.332 0 0 0 0 0-0.162 0.485-1.296 0.647-2.755 1.135-4.051 13.615-45.222 7.293-94.497-19.452-135.342h0.162z" />
<glyph unicode="&#xe91d;" glyph-name="picture" d="M509.347 1012.364h5.306c107.473 0 191.674 0 257.396-8.844 67.212-9.030 120.273-27.927 161.932-69.539 41.658-41.658 60.509-94.72 69.539-161.978 8.844-65.676 8.844-149.876 8.844-257.35v-5.306c0-107.473 0-191.674-8.844-257.396-9.030-67.212-27.927-120.273-69.539-161.932-41.658-41.658-94.72-60.509-161.978-69.539-65.676-8.844-149.876-8.844-257.35-8.844h-5.306c-107.473 0-191.674 0-257.396 8.844-67.212 9.030-120.273 27.927-161.932 69.539-41.658 41.658-60.509 94.72-69.539 161.978-8.844 65.676-8.844 149.876-8.844 257.35v5.306c0 107.473 0 191.674 8.844 257.396 9.030 67.212 27.927 120.273 69.539 161.932 41.658 41.658 94.72 60.509 161.978 69.539 65.676 8.844 149.876 8.844 257.35 8.844zM261.26 934.353c-59.485-8.006-95.372-23.273-121.856-49.757-26.531-26.531-41.751-62.371-49.757-121.903-8.099-60.509-8.192-140.009-8.192-250.694s0.093-190.185 8.192-250.694c8.006-59.532 23.273-95.418 49.757-121.949 26.531-26.484 62.371-41.705 121.903-49.711 60.509-8.099 140.009-8.192 250.694-8.192s190.185 0.093 250.694 8.192c59.532 8.006 95.418 23.273 121.949 49.757 26.484 26.531 41.705 62.371 49.711 121.903 8.099 60.509 8.192 140.009 8.192 250.694s-0.093 190.185-8.192 250.694c-8.006 59.532-23.273 95.418-49.757 121.949-26.531 26.484-62.371 41.705-121.903 49.711-60.509 8.099-140.009 8.192-250.694 8.192s-190.231-0.093-250.74-8.192zM698.182 756.364c-15.43 0-30.231-6.13-41.142-17.041s-17.040-25.71-17.040-41.141c0-15.431 6.13-30.229 17.040-41.141s25.712-17.041 41.142-17.041c15.43 0 30.231 6.13 41.142 17.041s17.040 25.71 17.040 41.141c0 15.431-6.13 30.229-17.040 41.141s-25.712 17.041-41.142 17.041zM570.182 698.182c0 33.948 13.484 66.505 37.492 90.509 24.003 24.005 56.562 37.491 90.508 37.491s66.504-13.486 90.508-37.491c24.008-24.004 37.492-56.562 37.492-90.509s-13.484-66.505-37.492-90.509c-24.003-24.005-56.562-37.491-90.508-37.491s-66.504 13.486-90.508 37.491c-24.008 24.004-37.492 56.562-37.492 90.509zM349.277 457.216c-13.059 13.861-31.070 22.002-50.104 22.635-19.034 0.638-37.549-6.279-51.504-19.237l-37.702-35.049c-6.79-6.302-15.805-9.649-25.061-9.304s-17.998 4.352-24.3 11.143c-6.302 6.791-9.648 15.802-9.304 25.060s4.353 17.999 11.143 24.301l37.702 35.002c27.459 25.512 63.892 39.131 101.351 37.883s72.907-17.259 98.608-44.539l123.206-130.793c6.228-6.609 14.666-10.696 23.715-11.487 9.044-0.791 18.064 1.773 25.344 7.205 27.048 20.177 60.369 30.124 94.050 28.072 33.685-2.057 65.55-15.974 89.944-39.289l105.565-100.864c6.405-6.461 10.031-15.165 10.114-24.255 0.084-9.095-3.389-17.864-9.672-24.441-6.284-6.572-14.885-10.435-23.976-10.766-9.086-0.33-17.943 2.904-24.688 9.007l-105.565 100.817c-12.465 11.916-28.751 19.028-45.964 20.075s-34.239-4.035-48.058-14.35c-21.015-15.677-47.057-23.077-73.179-20.797-26.117 2.285-50.483 14.094-68.459 33.178l-123.206 130.793z" />
<glyph unicode="&#xe91e;" glyph-name="spec-date-buy" d="M670.261 571.129c-13.913 14.262-34.785 16.001-49.045 3.13-10.436-9.39-19.478-19.826-29.215-29.562-2.435-2.088-4.871-4.523-7.306-6.611-32.697-32.692-65.389-65.389-98.086-98.086-5.218-5.218-8.001-4.871-12.524 0-5.565 6.26-12.172 11.825-18.085 17.737-8.695 8.7-17.044 18.089-26.088 26.437-13.565 12.871-35.826 12.871-49.391 0-13.565-12.52-15.305-36.174-2.435-50.087 23.304-24.349 48-47.999 72.001-71.653 13.913-19.131 38.258-21.914 52.87-7.649 31.651 30.257 61.912 61.912 92.868 92.868 25.391 25.043 50.781 50.087 75.825 75.478 12.524 12.52 11.13 34.433-1.389 47.652v0.347zM999.998 725.913c-0.695 77.217-37.563 133.218-109.564 166.261-15.307 6.957-33.044 11.13-51.48 15.304-9.042 2.087-18.432 4.174-27.822 6.957l-10.089 2.783v19.826c0 8.696 0 18.435 0 28.522 0 6.609-0.695 13.565-2.435 19.13-5.218 16.348-21.566 26.087-39.998 23.304-16.001-2.435-28.872-17.044-29.567-33.739 0-11.478 0-22.956 0-34.783v-29.913h-431.652v58.782c-0.696 24.348-14.609 40.348-36.522 40.348-21.565 0-35.826-16-36.174-40.696v-56.696l-27.826-2.783c-100.87-10.087-171.826-87.652-171.826-188.87v-62.261c0-144.697 0-290.087 0-435.13 0-100.521 81.043-182.61 179.826-183.652 170.783-1.394 446.608-1.394 615.306 0 98.78 1.042 179.129 82.784 179.476 182.958v36.521c0.699 153.391 1.394 311.999-0.347 467.825h0.695zM928.349 227.132c0-56.351-34.438-100.873-87.654-113.392-9.39-2.088-20.173-3.477-31.998-3.477-97.739 0-233.392 0-361.045 0-84.522 0-165.566 0-229.914 0-71.652 0-119.652 47.999-120 119.305 0 65.042 0 130.084 0 195.13v247.303c0 20.174 0 40.696 0.696 60.87 2.434 56.696 53.217 104 110.957 104 0.695 0 1.391 0 2.087 0h13.565v-28.174c0-10.783 0-21.913 0-32.695 0-18.435 11.13-33.044 27.13-36.87 11.13-2.783 22.261-0.348 30.957 6.261s13.913 16.696 13.913 28.174c0 11.13 0 21.913 0 33.391v30.261h431.653v-28.87c0-10.783 0-21.565 0-32.348 0-21.565 15.302-37.565 35.827-37.913 18.085 0 35.475 15.305 36.174 36.174 0.347 10.782 0 21.565 0 32.695v29.565l13.219 0.696c19.127 1.044 36.174-3.131 52.87-12.174 38.258-20.87 59.477-54.261 60.866-96.348 0.699-23.652 0.699-47.304 0.347-70.957v-245.913c0-61.217 0-122.782 0-183.999l0.352-0.695z" />
<glyph unicode="&#xe91f;" glyph-name="spec-date" d="M25.043 719.652v-62.261c0-144.697 0-290.087 0-435.13 0-100.521 81.043-182.61 179.826-183.652 170.783-1.394 446.608-1.394 615.306 0 98.78 1.042 179.129 82.784 179.476 182.958v36.521c0.699 153.391 1.394 311.999-0.347 467.825-0.695 77.217-37.563 133.218-109.564 166.261-15.307 6.957-33.044 11.13-51.48 15.304-9.042 2.087-18.432 4.174-27.826 6.957l-10.084 2.783v19.826c0 8.696 0 18.435 0 28.522 0 6.609-0.699 13.565-2.435 19.13-5.218 16.348-21.566 26.087-40.003 23.304-15.997-2.435-28.868-17.044-29.562-33.739 0-11.478 0-22.956 0-34.783v-29.913h-431.653v58.782c0 24.348-13.913 40.348-35.826 40.348-21.565 0-35.826-16-36.174-40.696v-56.696l-27.826-2.783c-100.87-10.087-171.826-87.652-171.826-188.87zM927.998 410.784c0-61.217 0-122.782 0-183.999 0-56.351-34.433-100.873-87.65-113.392-9.39-2.088-20.173-3.482-31.998-3.482-97.743 0-233.392 0-361.045 0-84.523 0-165.566 0-229.914 0-71.652 0-119.652 48.003-120 119.305 0 65.046 0 130.088 0 195.134v111.999h830.958v-125.565h-0.352zM211.131 836.522h13.565v-28.174c0-10.783 0-21.913 0-32.695 0-18.435 11.13-33.044 27.131-36.87 11.13-2.783 22.261-0.348 30.956 6.261s13.913 16.696 13.913 28.174c0 11.13 0 21.913 0 33.391v30.261h431.653v-28.869c0-10.783 0-21.565 0-32.348 0-21.565 15.302-37.565 35.827-37.913 18.085 0 35.475 15.304 36.174 36.174 0.347 10.783 0 21.565 0 32.696v29.565l13.214 0.695c19.131 1.044 36.174-3.13 52.87-12.174 38.262-20.87 59.481-54.261 60.87-96.348 0.699-23.652 0.699-47.304 0.347-70.957v-45.913h-830.259v60.87c0 20.174 0 40.696 0.695 60.87 2.435 56.696 53.218 104 110.957 104 0.696 0 1.391 0 2.087 0v-0.696zM738.086 306.087c-10.084 0-20.52 0-30.609 0-18.779 0-33.044 14.608-33.044 32.697 0 18.085 14.612 31.998 33.391 31.998 20.525 0 41.045 0 61.217 0 18.784 0 33.391-13.913 33.391-31.998 0-18.089-14.26-32.349-33.044-32.697-10.431 0-20.867 0-31.651 0h0.347zM288 370.781c10.087 0 20.522 0 30.609 0 18.435 0 32.348-14.26 32.348-32.345 0-17.742-13.913-32.002-32.348-32.349-21.217 0-42.435 0-63.652 0-18.087 0-32.348 14.955-32.348 32.697 0 17.737 14.608 31.651 32.695 31.998 10.783 0 21.565 0 32.348 0h0.348zM513.042 370.781c10.436 0 20.872 0 31.308 0 18.432-0.347 32.345-14.608 31.998-32.345 0-17.395-13.913-31.655-31.651-32.002-21.566-0.347-43.133-0.347-64.699 0-17.737 0-31.651 14.608-31.998 32.002 0 17.737 14.26 31.998 32.349 32.345 10.783 0 21.562 0 32.345 0h0.347z" />
<glyph unicode="&#xe920;" glyph-name="spec-parking" d="M752.365 1018.182h-477.093c-137.454 0-249.091-111.636-249.091-249.091v-477.093c0-137.453 111.636-249.088 249.091-249.088h477.093c137.453 0 249.088 111.635 249.088 249.088v477.093c0 137.454-111.635 249.091-249.088 249.091zM928.726 291.998c0-97.089-78.909-176.361-176.361-176.361h-477.093c-97.091 0-176.364 78.909-176.364 176.361v477.093c0 97.091 78.909 176.364 176.364 176.364h477.093c97.089 0 176.361-78.909 176.361-176.364v-477.093zM531.638 722.909c-41.458 0-82.547 0-124.001 0h-8v-384.728h76.728v115.274c18.181 0 35.635 0 52.727 0 8.727 0 17.455 0.363 26.182 1.82 57.819 8.36 108.362 61.817 112.728 119.634 6.544 80.728-55.273 148-136.364 148zM538.545 530.544c-20.364-1.089-41.090 0-61.817 0v115.638c4.361 0 8.364 0 12.726 0 18.181 0 36.366 0.728 53.821-1.455 28.365-3.273 49.455-30.545 48.361-59.636-1.089-27.271-25.088-52.727-53.090-54.179v-0.368z" />
<glyph unicode="&#xe921;" glyph-name="spec-population" d="M971.712 569.421c-3.563 4.634-7.479 8.909-11.755 13.188l-387.281 387.093c-19.951 19.961-42.756 30.298-65.911 30.298-23.518 0-46.319-10.337-65.916-30.298l-113.652-113.705c-87.646-88.041-175.648-175.725-263.65-263.409-17.102-17.109-34.203-36.002-39.547-64.87v-23.885c5.344-27.443 22.446-46.336 39.547-63.445 122.918-122.257 245.479-244.873 367.685-367.846 17.101-17.109 35.985-34.219 63.42-39.211h25.293c27.435 5.35 46.673 22.814 62.707 38.852 89.071 89.468 178.142 178.577 267.213 267.691l111.872 111.919c34.202 34.219 38.477 81.626 10.688 117.628h-0.713zM914.709 506.688c-1.783-2.142-3.921-4.279-6.059-6.417l-384.785-384.956c-7.484-7.484-12.826-10.692-17.101-11.051-4.275 0-9.621 3.209-17.105 10.692l-386.208 386.385c0 0-2.851 2.85-3.919 3.917-1.425 2.854-2.85 5.705-4.275 8.913l-1.069 2.138c0 0 1.425 2.138 1.781 3.209 2.494 4.279 4.988 8.555 8.195 11.763 110.447 110.853 221.251 221.706 331.697 332.202l53.086 53.11c14.967 14.97 20.309 14.97 34.918 0l385.143-385.312c1.779-1.783 3.917-3.921 5.7-6.059 4.988-6.417 4.988-13.188 0-19.605v1.071zM609.015 560.508c-5.342-0.354-8.55 1.071-12.826 6.417-14.963 18.534-30.285 37.426-47.386 57.387-3.204 3.564-7.479 5.347-11.042 6.416-1.071 0.356-2.142 0.713-3.209 1.069l-2.138 1.069h-2.138c-38.123 4.277-72.324-3.921-105.46-24.594-9.62-6.060-19.952-11.049-30.996-16.396-6.413-2.85-12.47-6.059-18.883-9.267-3.919-2.138-8.907-6.417-11.045-11.763-6.057-17.109-12.114-34.577-17.814-52.041l-2.494-7.484c-0.713-1.783-0.713-3.567-1.069-6.417l-1.069-6.417 65.2-22.455 6.413 18.893c3.206 9.621 6.413 19.247 10.332 28.514 1.069 2.496 3.206 4.992 5.701 6.417 7.838 4.275 15.676 8.196 24.226 12.476l-66.268-216.717 68.052-21.030 33.489 108.356c10.688-12.83 21.376-24.947 30.997-36.71 0-0.713 0-2.854 0-4.279 0-14.255 0-28.16 0-42.415v-22.455h70.545l0.713 9.98c0 2.496 0 4.992 0 7.484v15.684c0 17.109 0 34.219 0 51.328 0 6.771-2.85 14.259-7.484 19.605-11.046 13.542-22.447 26.731-33.847 40.277-11.401 13.542-22.801 27.089-34.202 40.99-0.713 0.713-1.425 3.921-1.071 4.992 3.563 13.542 7.838 27.089 12.113 40.99v1.425l2.85-3.209c10.692-12.83 21.022-24.951 30.997-37.427 5.346-6.413 11.401-9.267 19.951-9.267 0 0 0.358 0 0.713 0 13.897 0 28.147 0 42.398 0h24.585v71.287h-17.101c-7.484 0-14.609 0.358-21.376 0l-0.358-0.713zM518.519 646.054h0.713c14.609 0 28.506 5.703 38.835 16.040 10.688 10.693 16.747 24.951 16.747 39.921 0 30.654-24.939 55.605-55.582 55.961-30.639 0-55.578-24.951-55.578-55.604s24.58-55.961 54.865-56.318z" />
<glyph unicode="&#xe922;" glyph-name="spec-square-ground" d="M1018.284 791.033c-11.636 52.364-55.273 93.818-106.184 101.091-55.999 8-107.273-17.455-133.818-66.546-1.452-2.545-3.998-4-6.907-3.273-23.273 4.364-46.545 8-70.181 12l-32.363 5.455-12.367-73.091 32.731-5.455c23.999-4 46.909-8 70.181-11.636l5.087-5.091c5.092-31.636 19.274-57.455 42.91-76.727 7.275-6.182 15.272-11.273 23.273-16.364 2.546-1.455 5.092-3.273 7.275-4.728l-28.728-214.909c0 0 0-0.726-0.726-0.726-62.548-12.362-102.912-57.456-108.004-121.093 0-1.089 0-1.452 0-1.452-0.363 0-1.815-0.731-3.272-1.094-112.724-29.817-225.815-59.634-338.544-89.451-3.637-1.094-4-0.731-5.455 1.815-13.818 22.547-33.455 38.912-57.818 48.728-7.273 2.909-14.909 5.092-22.182 7.27-2.182 0.731-4 1.094-6.182 1.82l-41.091 328.727c-6.545 53.455-13.454 106.909-20.364 160-0.364 3.636-0.364 4 3.273 5.818 22.546 10.545 40.728 26.909 54.182 48.727 6.545 10.545 6.545 10.545 20 8.364 17.455-2.909 34.91-5.818 52.364-8.727l30.181-5.091 12.364 73.091-28 4.727c-22.182 3.636-43.636 7.273-65.455 10.909l-4 4.364c-8 47.273-34.546 80.727-78.182 99.637-7.273 2.909-14.545 5.091-21.818 6.909-3.273 0.727-51.273 14.182-101.455-20.727-29.091-20.727-43.636-49.091-49.454-75.273-6.182-28-4-57.818 7.636-84 17.091-38.546 47.273-63.636 93.818-73.455l1.091-1.091 41.818-335.272c6.182-50.548 12.727-101.455 19.273-151.999 0.364-3.277-1.091-6.186-4-7.638-38.182-21.090-68.727-55.999-72.727-99.272-7.636-82.548 54.545-146.181 130.182-146.181 2.182 0 4 0 6.182 0 63.636 2.909 115.636 53.816 121.091 118.179 0.364 5.818 1.455 6.912 7.636 8.727 69.091 17.818 137.817 36.003 206.546 54.184l131.998 34.546 2.546-4.366c30.548-46.909 88.362-67.998 143.635-52.364 53.094 15.272 92.002 65.457 92.728 119.636 0.731 53.457-23.273 93.454-70.907 118.91-2.909 1.457-4.729 5.092-4.366 8.364 10.91 79.635 19.638 144.728 26.913 204.727 0.726 5.818 1.452 6.546 8.364 7.636 33.815 7.273 62.543 27.273 81.455 56.364 18.544 28.727 24.725 62.545 17.455 95.273l0.363 1.091zM885.192 302.308c-1.089-29.822-25.456-53.821-54.547-53.821h-1.089c-14.909 0-28.728 6.544-39.275 17.455-10.179 10.547-15.635 24.362-15.272 38.907 0.363 14.913 6.544 28.728 17.818 38.912 10.184 9.816 23.273 14.909 37.092 14.909 0.726 0 1.452 0 1.82 0 29.817-1.089 54.542-26.908 53.453-56.362zM836.464 765.215c0 14.545 6.181 28.727 17.091 39.273 10.547 10.182 23.999 15.272 38.907 15.636 29.822-0.728 54.547-26.182 54.184-55.637 0-14.909-6.181-28.727-17.091-39.273-10.543-10.182-23.999-15.636-37.818-15.636h-1.089c-30.185 0.728-54.547 25.455-54.184 55.273v0.364zM208.465 887.033c-0.364-30.182-25.091-54.546-54.909-54.546-30.181 0-54.545 24.727-54.909 54.909 0 14.545 5.818 28.363 16.364 38.909s24.364 16.364 38.545 16.364h0.364c14.545 0 28.363-6.182 38.909-16.728s16-24.363 15.636-38.909zM245.556 94.306c-14.545 0-28.364 5.818-38.909 16.365-10.545 10.543-16.364 24.362-16.364 38.907s6.182 28.365 16.727 38.907c10.545 10.184 24 15.639 38.182 15.639h0.728c30.182-0.363 54.546-25.456 54.182-55.273 0-30.185-24.727-54.547-54.909-54.91l0.364 0.363zM547.84 859.715l-12.102-73.188 73.183-12.103 12.106 73.188-73.188 12.103zM426.267 879.861l-12.128-73.184 73.183-12.128 12.13 73.183-73.184 12.129z" />
<glyph unicode="&#xe923;" glyph-name="spec-square-property" d="M636.365 405.816l-220.365 220.366h84.727v61.454h-192v-192.365h61.818v83.274l219.274-218.907h-83.638v-61.454h192v191.995h-61.817v-84.364zM742.181 981.818h-477.090c-137.454 0-249.091-111.636-249.091-249.091v-477.090c0-137.453 111.636-249.093 249.091-249.093h477.090c137.453 0 249.093 111.639 249.093 249.093v477.090c0 137.454-111.639 249.091-249.093 249.091zM918.547 255.637c0-97.089-78.909-176.365-176.365-176.365h-477.090c-97.091 0-176.364 78.909-176.364 176.365v477.090c0 97.091 78.909 176.364 176.364 176.364h477.090c97.089 0 176.365-78.909 176.365-176.364v-477.090z" />
<glyph unicode="&#xe924;" glyph-name="tag-coffee" d="M961.597 443.871c-25.6 53.12-69.12 80.959-129.597 82.88-6.724 0-13.442 0-20.48 0h-3.523v7.040c0 26.561-12.479 38.72-39.042 38.72h-666.238c-25.281 0-38.4-12.8-38.4-38.080 0-12.48 0-24.96 0-37.12 0-31.040-0.32-63.36 0.64-95.040 0.96-30.080 3.52-53.76 8-74.557 19.84-89.286 69.44-161.922 148.16-216.323h-27.84c-31.68 0-63.36 0-95.040 0-12.48 0-24-6.717-29.76-17.278-5.44-9.919-5.12-21.763 0.961-31.362 3.2-5.12 8.32-8.643 13.119-11.837 1.92-1.283 3.84-2.56 5.44-3.843l1.6-1.277 695.039 0.635c9.598 4.806 18.562 10.882 22.084 23.361 2.874 9.919 0.956 20.48-5.12 28.481-6.403 8.322-16.643 13.121-27.846 13.442-31.355 0-63.037 0-94.397 0h-27.52c49.923 34.243 89.599 78.077 117.438 130.239 0.642 0.642 2.881 1.597 4.478 1.597 22.726 0.642 45.766 0 68.806 0.963 45.759 2.239 87.354 27.518 111.677 68.157 24.317 40.643 26.877 89.603 7.359 130.883v0.32zM807.997 439.391c0 7.040 0 14.080 0 21.12 31.041 3.52 80.002-0.64 97.28-53.76 6.717-20.48 3.202-43.201-8.957-62.080-12.165-18.561-30.72-30.719-51.842-32.958-12.158-1.283-24.644-0.963-37.758-0.642-3.523 0-7.045 0-10.561 0 12.479 42.56 12.158 86.080 11.837 128.32zM530.238 126.109c-45.761-14.077-92.8-17.599-140.8-10.561-72.96 10.882-134.72 43.206-183.68 95.362-41.28 44.162-65.28 94.72-72.32 150.721-2.56 21.12-2.88 42.88-3.2 64 0 6.4 0 12.48 0 18.88-0.32 15.36 0 30.72 0 46.72v15.36h611.521c0-12.8 0-25.6 0-38.4 0-31.040 0-63.040-1.597-94.401-2.881-48.637-21.122-95.679-54.081-139.52-39.362-52.163-91.842-88.317-155.842-108.162zM244.478 824.351c-2.24-2.24-4.8-4.48-7.040-6.719-28.16-27.52-39.36-56.96-34.56-90.561 4.16-28.8 18.24-53.76 42.56-76.8 6.080-5.76 13.76-8.96 21.76-8.96 2.56 0 5.12 0 7.68 0.961 11.52 2.56 20.16 10.24 24 21.12 3.84 11.2 1.28 24-7.040 33.6-7.36 8.96-15.040 18.56-20.16 28.8-6.72 12.8-5.12 25.281 4.48 36.16 4.8 5.44 10.24 10.56 16 16l6.080 5.76c23.36 22.4 35.2 48 35.84 78.72-1.6 31.36-15.040 60.16-40.64 85.76-7.361 7.040-15.68 11.2-24.64 11.84-8.64 0.32-17.6-2.88-24.32-9.6-13.12-13.12-12.8-32 0.96-48 8.32-9.92 14.4-18.239 18.56-26.88 6.4-12.8 4.8-25.28-4.48-36.48-4.48-5.12-9.6-9.92-15.040-15.040v0.319zM413.118 824.351l-6.4-6.080c-24.32-23.36-35.84-48.96-36.48-80.64 1.599-33.28 17.28-63.68 45.44-88.32 5.76-4.8 14.72-7.040 22.080-7.040 1.92 0 3.52 0 5.12 0.319 11.2 1.92 19.84 8.96 24 19.52 4.16 11.2 1.92 24.64-6.4 34.88-6.72 8.32-15.36 19.2-21.44 31.36-7.040 14.080-1.28 25.92 4.8 33.28 4.8 5.44 9.92 10.56 15.68 16l6.080 5.76c28.48 27.52 40 57.281 35.2 91.2-3.84 27.52-16.96 51.84-39.68 74.24-14.72 14.4-34.56 15.36-48 1.92-13.12-12.8-12.8-32 0.96-48 8.32-9.92 14.4-18.24 18.56-26.88 6.4-13.12 4.8-25.92-5.12-37.12-4.48-5.12-9.28-9.6-14.72-14.4h0.32zM581.118 824.031l-6.4-6.081c-24.32-23.359-35.84-49.28-35.84-81.92 1.6-32.319 17.6-62.4 45.76-87.040 5.44-4.8 14.080-6.719 21.44-6.719 2.241 0 4.16 0 6.081 0.64 11.2 1.92 19.519 9.28 23.68 19.52 4.16 11.2 1.92 24-5.76 33.6l-0.961 1.28c-7.36 9.279-15.040 18.88-20.48 29.12-6.4 12.48-4.8 24.96 4.801 36.16 4.48 5.12 9.6 9.92 14.72 14.72l6.080 5.76c23.68 22.4 35.521 46.399 36.48 73.279 0.96 33.28-12.16 63.36-40.32 92.16-14.399 14.72-34.24 16-48 2.56-13.44-13.119-13.44-32 0-48 5.44-6.4 13.12-16 18.56-26.56 6.72-13.12 5.12-25.92-4.8-37.12-4.48-5.12-9.6-9.921-15.040-15.041v-0.319z" />
</font>
</defs>
</svg>
