<?xml version="1.0" standalone="no"?>
<!DOCTYPE svg PUBLIC "-//W3C//DTD SVG 1.1//EN" "http://www.w3.org/Graphics/SVG/1.1/DTD/svg11.dtd" >
<svg xmlns="http://www.w3.org/2000/svg" xmlns:xlink="http://www.w3.org/1999/xlink" version="1.1">
<metadata></metadata>
<defs>
<font id="e-ukraine_headregular" horiz-adv-x="360" >
<font-face units-per-em="512" ascent="409" descent="-103" />
<missing-glyph horiz-adv-x="160" />
<glyph unicode="&#x3c;&#x433;&#x440;&#x43d;&#x3e;" d="M330 211h-92l-52 -42h144v-38h-182q-22 -16 -22 -40q0 -43 61 -43q49 0 81 47l45 -30q-45 -70 -130 -70q-52 0 -84 23t-32 62q0 29 19 51h-58v38h88l53 42h-141v38h181q22 21 22 42q0 19 -15.5 30.5t-39.5 11.5q-45 0 -75 -47l-46 31q43 68 122 68q51 0 82 -23.5 t31 -62.5q0 -28 -17 -50h57v-38z" />
<glyph horiz-adv-x="0" />
<glyph horiz-adv-x="170" />
<glyph unicode="&#xd;" horiz-adv-x="160" />
<glyph unicode=" "  horiz-adv-x="160" />
<glyph unicode="&#x09;" horiz-adv-x="160" />
<glyph unicode="&#xa0;" horiz-adv-x="160" />
<glyph unicode="!" horiz-adv-x="180" d="M66 126l-11 254h70l-11 -254h-48zM51 0v78h78v-78h-78z" />
<glyph unicode="&#x22;" horiz-adv-x="225" d="M33 244l-6 136h63l-7 -136h-50zM141 244l-6 136h63l-6 -136h-51z" />
<glyph unicode="#" d="M336 231h-62v-82h62v-58h-62v-91h-52v91h-84v-91h-52v91h-62v58h62v82h-62v58h62v91h52v-91h84v91h52v-91h62v-58zM222 149v82h-84v-82h84z" />
<glyph unicode="$" horiz-adv-x="353" d="M323 109q0 -48 -34 -78t-94 -35v-40h-39v39q-81 5 -134 55l37 46q39 -38 97 -46v118q-59 18 -90 41.5t-31 67.5q0 45 32.5 73.5t88.5 33.5v36h39v-36q66 -3 119 -44l-35 -47q-37 31 -84 37v-113q67 -17 97.5 -41.5t30.5 -66.5zM95 280q0 -18 14 -30t47 -22v102 q-61 -6 -61 -50zM195 50q66 6 66 53q0 20 -14 31.5t-52 22.5v-107z" />
<glyph unicode="%" horiz-adv-x="538" d="M130 155q-47 0 -74.5 31.5t-27.5 83.5t27.5 83.5t74.5 31.5t74.5 -31.5t27.5 -83.5t-27.5 -83.5t-74.5 -31.5zM125 0l241 380h47l-241 -380h-47zM130 197q25 0 39.5 20t14.5 53t-14.5 53t-39.5 20t-39.5 -20t-14.5 -53t14.5 -53t39.5 -20zM408 -5q-47 0 -74.5 31.5 t-27.5 83.5t27.5 83.5t74.5 31.5t74.5 -31.5t27.5 -83.5t-27.5 -83.5t-74.5 -31.5zM408 37q25 0 39.5 20t14.5 53t-14.5 53t-39.5 20t-39.5 -20t-14.5 -53t14.5 -53t39.5 -20z" />
<glyph unicode="&#x26;" horiz-adv-x="482" d="M418 91l50 -11q-3 -41 -24 -63t-56 -22q-40 0 -95 42q-58 -42 -131 -42q-64 0 -101 28.5t-37 77.5q0 75 93 105q-40 50 -40 88q0 40 30.5 65.5t79.5 25.5q52 0 83 -24.5t31 -62.5q0 -35 -25 -63.5t-71 -45.5q44 -45 86 -81q38 44 48 105l56 -12q-17 -76 -62 -127 q38 -27 55 -27q25 0 30 44zM187 338q-23 0 -38.5 -14.5t-15.5 -35.5q0 -23 38 -64q71 22 71 68q0 21 -15 33.5t-40 12.5zM166 47q45 0 84 25q-34 31 -99 97q-66 -21 -66 -68q0 -24 22.5 -39t58.5 -15z" />
<glyph unicode="'" horiz-adv-x="117" d="M33 244l-6 136h63l-7 -136h-50z" />
<glyph unicode="(" horiz-adv-x="236" d="M184 -74q-64 34 -101 99.5t-37 144.5q0 80 37 145.5t101 99.5l24 -32q-47 -36 -73.5 -92t-26.5 -121q0 -135 100 -213z" />
<glyph unicode=")" horiz-adv-x="230" d="M63 -74l-24 31q100 78 100 213q0 65 -26.5 121t-73.5 92l24 32q64 -34 101 -99.5t37 -145.5q0 -79 -37 -144.5t-101 -99.5z" />
<glyph unicode="*" horiz-adv-x="242" d="M218 315l-67 -21l41 -57l-30 -21l-41 56l-41 -56l-30 21l41 57l-67 22l11 35l68 -21v70h37v-70l67 21z" />
<glyph unicode="+" d="M316 215v-50h-110v-111h-52v111h-110v50h110v111h52v-111h110z" />
<glyph unicode="," horiz-adv-x="160" d="M41 -72v36h9q30 0 30 34v2h-39v78h78v-72q0 -78 -67 -78h-11z" />
<glyph unicode="-" horiz-adv-x="244" d="M35 141v58h174v-58h-174z" />
<glyph unicode="." horiz-adv-x="160" d="M41 0v78h78v-78h-78z" />
<glyph unicode="/" horiz-adv-x="238" d="M-20 -20l222 420h56l-222 -420h-56z" />
<glyph unicode="0" d="M180 -5q-70 0 -111 53t-41 142t41 142t111 53t111 -53t41 -142t-41 -142t-111 -53zM180 47q42 0 66.5 38.5t24.5 104.5t-24.5 104.5t-66.5 38.5t-66.5 -38.5t-24.5 -104.5t24.5 -104.5t66.5 -38.5z" />
<glyph unicode="1" horiz-adv-x="234" d="M105 0v267h-88v49h16q49 0 67 13t22 51h43v-380h-60z" />
<glyph unicode="2" horiz-adv-x="309" d="M103 54h185v-54h-272v39l132 118q70 63 70 113q0 28 -18.5 46t-47.5 18q-35 0 -56 -21.5t-23 -62.5l-56 11q4 58 42 91t97 33q55 0 89 -30.5t34 -79.5q0 -39 -24.5 -74.5t-81.5 -85.5z" />
<glyph unicode="3" horiz-adv-x="310" d="M172 233q49 0 81 -31.5t32 -80.5q0 -54 -39.5 -90t-100.5 -36q-104 0 -140 83l46 27q27 -59 91 -59q39 0 61.5 20t22.5 55q0 31 -19 50.5t-50 19.5q-24 0 -41 -11l-30 32l111 114h-176v54h252v-44z" />
<glyph unicode="4" horiz-adv-x="328" d="M321 145v-51h-61v-94h-58v94h-187v48l173 238h72v-235h61zM77 145h125v173z" />
<glyph unicode="5" horiz-adv-x="317" d="M162 254q56 0 93 -36.5t37 -91.5q0 -58 -40 -94.5t-104 -36.5q-45 0 -79.5 18.5t-51.5 51.5l40 32q29 -51 90 -51q38 0 61.5 22.5t23.5 57.5q0 36 -22 58t-58 22q-50 0 -73 -39l-45 15l17 198h213v-55h-166l-8 -94q29 23 72 23z" />
<glyph unicode="6" horiz-adv-x="333" d="M190 243q56 0 92 -33t36 -88t-40 -91t-97 -36q-75 0 -113 54t-38 136q0 87 40 143.5t119 56.5q78 0 118 -53l-40 -37q-27 39 -78 39q-54 0 -79.5 -41.5t-24.5 -101.5q34 52 105 52zM180 45q34 0 57 21t23 54q0 35 -22 55t-56 20q-35 0 -58 -20t-23 -54t22 -55t57 -21z " />
<glyph unicode="7" horiz-adv-x="287" d="M8 380h276v-45q-63 -58 -99.5 -146.5t-36.5 -188.5h-61q0 92 36.5 180t92.5 145h-208v55z" />
<glyph unicode="8" horiz-adv-x="331" d="M238 194q68 -27 68 -93q0 -48 -38 -77t-102 -29t-102.5 29t-38.5 77q0 67 68 92q-57 27 -57 86q0 48 35.5 77t94.5 29q58 0 93.5 -29t35.5 -77q0 -60 -57 -85zM166 338q-33 0 -53 -17t-20 -45q0 -29 19.5 -45.5t53.5 -16.5q33 0 52.5 17t19.5 45t-19.5 45t-52.5 17z M166 42q37 0 59 17.5t22 46.5q0 28 -22 45t-59 17q-38 0 -60 -17t-22 -45q0 -29 22.5 -46.5t59.5 -17.5z" />
<glyph unicode="9" horiz-adv-x="333" d="M152 385q74 0 112 -54t38 -136q0 -87 -39.5 -143.5t-118.5 -56.5q-78 0 -119 53l41 37q27 -39 78 -39q54 0 79.5 41.5t24.5 101.5q-34 -52 -105 -52q-56 0 -92 33t-36 88t40 91t97 36zM151 185q35 0 58 20t23 54t-22 55t-57 21q-34 0 -57.5 -21t-23.5 -54q0 -35 22 -55 t57 -20z" />
<glyph unicode=":" horiz-adv-x="158" d="M40 222v78h78v-78h-78zM40 0v78h78v-78h-78z" />
<glyph unicode=";" horiz-adv-x="158" d="M40 222v78h78v-78h-78zM40 -72v36h10q29 0 29 34v2h-39v78h78v-72q0 -78 -67 -78h-11z" />
<glyph unicode="&#x3c;" d="M316 325v-54l-201 -80l201 -79v-57l-272 109v52z" />
<glyph unicode="=" d="M44 233v50h272v-50h-272zM44 97v50h272v-50h-272z" />
<glyph unicode="&#x3e;" d="M44 325l272 -109v-52l-272 -109v54l201 80l-201 79v57z" />
<glyph unicode="?" horiz-adv-x="310" d="M125 118q-1 28 8.5 45t40.5 42q27 22 36 35.5t9 32.5q0 28 -17.5 44.5t-46.5 16.5q-34 0 -55.5 -22t-25.5 -60l-56 11q6 56 43.5 89t94.5 33q55 0 89.5 -30t34.5 -78q0 -55 -63 -102q-42 -31 -42 -53v-4h-50zM113 0v78h78v-78h-78z" />
<glyph unicode="@" horiz-adv-x="432" d="M401 52h12v-52q-13 -3 -21 -2q-29 0 -42.5 11t-15.5 37q-35 -51 -104 -51q-44 0 -71 24.5t-27 64.5q0 47 36 68.5t95 29.5q3 0 8 1q46 7 50 16q1 2 1 5q0 22 -26.5 38.5t-69.5 16.5q-67 0 -108 -42.5t-41 -113.5q0 -73 43.5 -115.5t117.5 -42.5q54 0 94 27l22 -41 q-53 -31 -118 -31q-93 0 -150.5 56t-57.5 147q0 88 56 145t144 57q70 0 112.5 -35.5t42.5 -93.5v-105q0 -19 18 -19zM238 44q35 0 61 21t26 49v42q-9 -6 -57 -16q-40 -6 -59.5 -16.5t-19.5 -36.5q0 -43 49 -43z" />
<glyph unicode="A" horiz-adv-x="397" d="M323 0l-34 88h-182l-34 -88h-66l153 380h77l153 -380h-67zM129 144h138l-69 178z" />
<glyph unicode="B" horiz-adv-x="381" d="M298 194q55 -25 55 -90q0 -48 -32.5 -76t-88.5 -28h-175v380h170q55 0 87 -27.5t32 -73.5q0 -56 -48 -85zM218 326h-100v-105h100q66 0 66 53q0 52 -66 52zM219 54q71 0 71 57t-71 57h-101v-114h101z" />
<glyph unicode="C" horiz-adv-x="387" d="M208 -5q-81 0 -130.5 53.5t-49.5 141.5q0 86 50 140.5t130 54.5q59 0 101 -29t59 -83l-59 -20q-23 77 -101 77q-52 0 -83.5 -38t-31.5 -102q0 -65 31 -102.5t84 -37.5q78 0 101 77l59 -20q-17 -52 -59 -82t-101 -30z" />
<glyph unicode="D" horiz-adv-x="412" d="M196 380q89 0 138.5 -51t49.5 -139q0 -85 -50.5 -137.5t-137.5 -52.5h-139v380h139zM195 55q58 0 91 36.5t33 98.5t-33 98.5t-91 36.5h-75v-270h75z" />
<glyph unicode="E" horiz-adv-x="344" d="M120 57h204v-57h-267v380h262v-57h-199v-100h154v-56h-154v-110z" />
<glyph unicode="F" horiz-adv-x="331" d="M320 323h-200v-103h155v-55h-155v-165h-63v380h263v-57z" />
<glyph unicode="G" horiz-adv-x="418" d="M223 193h157v-193h-48l-5 55q-44 -60 -122 -60q-80 0 -128.5 53.5t-48.5 141.5q0 87 51.5 141t135.5 54q57 0 99 -26.5t61 -75.5l-58 -22q-26 69 -103 69q-55 0 -88 -38t-33 -102q0 -65 31.5 -102.5t84.5 -37.5q42 0 73.5 24t40.5 70h-100v49z" />
<glyph unicode="H" horiz-adv-x="430" d="M310 380h63v-380h-63v166h-190v-166h-63v380h63v-156h190v156z" />
<glyph unicode="I" horiz-adv-x="177" d="M57 0v380h63v-380h-63z" />
<glyph unicode="J" horiz-adv-x="275" d="M106 -5q-39 0 -67.5 21t-39.5 59l53 21q10 -46 55 -46q53 0 53 62v268h64v-267q0 -54 -32 -86t-86 -32z" />
<glyph unicode="K" horiz-adv-x="392" d="M354 58h12v-58h-31q-63 0 -63 65v101h-152v-166h-63v380h63v-157h76l96 157h71l-102 -157h74v-146q0 -19 19 -19z" />
<glyph unicode="L" horiz-adv-x="336" d="M120 58h201v-58h-264v380h63v-322z" />
<glyph unicode="M" horiz-adv-x="538" d="M481 380v-380h-61v308l-116 -308h-69l-117 309v-309h-61v380h97l116 -306l115 306h96z" />
<glyph unicode="N" horiz-adv-x="432" d="M315 380h60v-380h-61l-197 279v-279h-60v380h62l196 -279v279z" />
<glyph unicode="O" horiz-adv-x="422" d="M211 -5q-83 0 -133 53.5t-50 141.5q0 86 51 140.5t132 54.5q83 0 133 -53t50 -142q0 -86 -51 -140.5t-132 -54.5zM211 51q53 0 85.5 37.5t32.5 101.5t-32.5 101.5t-85.5 37.5q-54 0 -86 -37.5t-32 -101.5t32 -101.5t86 -37.5z" />
<glyph unicode="P" horiz-adv-x="370" d="M216 380q62 0 98.5 -31.5t36.5 -85.5q0 -55 -36.5 -86.5t-98.5 -31.5h-96v-145h-63v380h159zM208 199q79 0 79 63t-79 63h-88v-126h88z" />
<glyph unicode="Q" horiz-adv-x="422" d="M394 190q0 -78 -41.5 -130t-110.5 -63v-18q0 -30 33 -30q17 0 47 2v-51q-32 -2 -51 -2q-87 0 -87 84v15q-71 8 -113.5 60t-42.5 133q0 86 51 140.5t132 54.5q83 0 133 -53t50 -142zM93 190q0 -64 32 -101.5t86 -37.5q53 0 85.5 37.5t32.5 101.5t-32.5 101.5t-85.5 37.5 q-54 0 -86 -37.5t-32 -101.5z" />
<glyph unicode="R" horiz-adv-x="392" d="M356 58h13v-58h-32q-30 0 -46.5 17t-16.5 48v82h-154v-147h-63v380h159q61 0 97 -29.5t36 -79.5q0 -65 -64 -91h52v-103q0 -19 19 -19zM208 325h-88v-125h88q79 0 79 63q0 62 -79 62z" />
<glyph unicode="S" horiz-adv-x="348" d="M173 -5q-93 0 -153 55l37 48q50 -48 121 -48q38 0 60.5 14t22.5 39q0 21 -18 32.5t-68 25.5q-27 8 -43 13.5t-37 15.5t-32.5 21t-20 28t-8.5 38q0 50 39 79t105 29q78 0 137 -45l-35 -48q-45 37 -106 37q-35 0 -56 -13.5t-21 -35.5q0 -20 20 -33t70 -26q70 -18 104 -43 t34 -69q0 -53 -41 -83.5t-111 -30.5z" />
<glyph unicode="T" horiz-adv-x="354" d="M344 380v-58h-135v-322h-64v322h-135v58h334z" />
<glyph unicode="U" horiz-adv-x="424" d="M212 -5q-74 0 -117 42t-43 113v230h63v-229q0 -46 26 -73t71 -27t70.5 26.5t25.5 73.5v229h64v-230q0 -71 -43 -113t-117 -42z" />
<glyph unicode="V" horiz-adv-x="390" d="M310 380h67l-144 -380h-76l-144 380h67l116 -315z" />
<glyph unicode="W" horiz-adv-x="561" d="M481 380h63l-110 -380h-67l-87 298l-86 -298h-66l-110 380h65l81 -291l84 291h66l83 -293z" />
<glyph unicode="X" horiz-adv-x="378" d="M369 0h-74l-107 150l-106 -150h-73l142 194l-133 186h74l98 -139l99 139h71l-132 -184z" />
<glyph unicode="Y" horiz-adv-x="382" d="M298 380h67l-106 -289q-35 -96 -114 -96q-43 0 -69 25.5t-26 66.5q0 50 37 78h41l-119 215h71l113 -215h31zM147 48q34 0 52 46l8 23h-88q-11 -13 -11 -29q0 -19 10.5 -29.5t28.5 -10.5z" />
<glyph unicode="Z" horiz-adv-x="353" d="M329 380v-50l-223 -272h223v-58h-306v50l223 272h-212v58h295z" />
<glyph unicode="[" horiz-adv-x="236" d="M197 350h-83v-360h83v-50h-140v460h140v-50z" />
<glyph unicode="\" horiz-adv-x="238" d="M258 -20h-56l-222 420h56z" />
<glyph unicode="]" horiz-adv-x="240" d="M203 400v-460h-140v50h83v360h-83v50h140z" />
<glyph unicode="^" d="M307 190h-56l-71 141l-72 -141h-55l98 190h58z" />
<glyph unicode="_" horiz-adv-x="260" d="M3 -4h254v-56h-254v56z" />
<glyph unicode="`" horiz-adv-x="160" d="M119 328h-43l-59 73h72z" />
<glyph unicode="a" horiz-adv-x="322" d="M291 52h11v-52q-6 -2 -21 -2q-28 0 -41.5 11t-16.5 36q-35 -50 -105 -50q-44 0 -71 24.5t-27 64.5q0 26 11 44.5t32 29t40 15.5t46 9q38 5 52.5 11t14.5 22q0 18 -17.5 29t-45.5 11q-52 0 -90 -40l-37 39q54 51 130 51q54 0 85 -26.5t31 -72.5v-135q0 -19 19 -19zM128 44 q35 0 60.5 21t25.5 49v39q-11 -7 -58 -15q-19 -3 -29 -5t-23 -7.5t-19 -15t-6 -23.5q0 -43 49 -43z" />
<glyph unicode="b" horiz-adv-x="362" d="M206 305q59 0 95 -42.5t36 -112.5q0 -69 -36.5 -112t-94.5 -43q-67 0 -103 51l-4 -46h-52v400h60v-142q38 47 99 47zM190 46q39 0 62.5 28.5t23.5 75.5t-23.5 75.5t-62.5 28.5q-40 0 -63.5 -28.5t-23.5 -75.5t23.5 -75.5t63.5 -28.5z" />
<glyph unicode="c" horiz-adv-x="326" d="M175 -5q-67 0 -108.5 43t-41.5 112t41.5 112t108.5 43q49 0 85 -24t49 -66l-57 -18q-21 57 -77 57q-41 0 -65 -28.5t-24 -75.5t24 -75.5t65 -28.5q57 0 77 57l57 -18q-13 -42 -49 -66t-85 -24z" />
<glyph unicode="d" horiz-adv-x="362" d="M255 400h60v-400h-52l-4 48q-37 -53 -103 -53q-59 0 -95 42.5t-36 112.5q0 69 36.5 112t94.5 43q63 0 99 -45v140zM172 46q40 0 63.5 28.5t23.5 75.5t-23.5 75.5t-63.5 28.5q-39 0 -62.5 -28.5t-23.5 -75.5t23.5 -75.5t62.5 -28.5z" />
<glyph unicode="e" horiz-adv-x="341" d="M85 131q5 -40 29.5 -62.5t63.5 -22.5q59 0 89 39l41 -36q-45 -54 -129 -54q-73 0 -113.5 43t-40.5 112t41 112t108 43q65 0 104.5 -42.5t39.5 -112.5q0 -12 -2 -19h-231zM174 255q-73 0 -88 -78h171q-6 37 -28 57.5t-55 20.5z" />
<glyph unicode="f" horiz-adv-x="234" d="M172 356q-36 0 -36 -36v-20h86v-51h-86v-249h-60v249h-62v51h62v21q0 40 26 63t71 23t82 -25l-28 -45q-27 19 -55 19z" />
<glyph unicode="g" horiz-adv-x="362" d="M263 300h52l-1 -268q0 -62 -39 -99.5t-107 -37.5q-79 0 -122 43l32 41q33 -33 89 -33q91 0 91 86v29q-38 -48 -102 -48q-59 0 -95 40t-36 106q0 65 36.5 105.5t94.5 40.5q66 0 103 -48zM172 62q40 0 63.5 26t23.5 70t-23.5 70t-63.5 26q-39 0 -62.5 -26t-23.5 -70 t23.5 -70t62.5 -26z" />
<glyph unicode="h" horiz-adv-x="359" d="M208 305q49 0 79 -31.5t30 -83.5v-190h-60v174q0 38 -17.5 59t-47.5 21q-36 0 -60.5 -23t-24.5 -58v-173h-60v400h60v-142q37 47 101 47z" />
<glyph unicode="i" horiz-adv-x="164" d="M49 342v60h66v-60h-66zM52 0v300h60v-300h-60z" />
<glyph unicode="j" horiz-adv-x="160" d="M50 342v60h66v-60h-66zM30 -102q-12 0 -30 2v54q8 -1 23 -1q30 0 30 30v317h60v-317q0 -85 -83 -85z" />
<glyph unicode="k" horiz-adv-x="331" d="M297 53h11v-53h-27q-58 0 -58 56v69h-116v-125h-60v400h60v-219h61l71 119h64l-76 -122h55v-110q0 -15 15 -15z" />
<glyph unicode="l" horiz-adv-x="154" d="M47 0v400h60v-400h-60z" />
<glyph unicode="m" horiz-adv-x="555" d="M406 305q48 0 77 -31.5t29 -83.5v-190h-60v174q0 80 -62 80q-35 0 -57.5 -23t-22.5 -58v-173h-60v174q0 80 -62 80q-35 0 -58 -23t-23 -58v-173h-60v300h52l4 -45q34 50 102 50q67 0 94 -58q35 58 107 58z" />
<glyph unicode="n" d="M209 305q48 0 78.5 -32t30.5 -83v-190h-60v174q0 38 -17.5 59t-48.5 21q-36 0 -60.5 -23t-24.5 -58v-173h-60v300h52l4 -47q37 52 106 52z" />
<glyph unicode="o" horiz-adv-x="354" d="M177 -5q-69 0 -110.5 42.5t-41.5 112.5q0 69 42 112t110 43q69 0 110.5 -42.5t41.5 -112.5q0 -69 -42 -112t-110 -43zM177 46q41 0 66 28.5t25 75.5t-25 75.5t-66 28.5t-66 -28.5t-25 -75.5t25 -75.5t66 -28.5z" />
<glyph unicode="p" horiz-adv-x="362" d="M206 305q59 0 95 -42.5t36 -112.5q0 -69 -36.5 -112t-94.5 -43q-63 0 -99 45v-140h-60v400h52l4 -48q37 53 103 53zM190 46q39 0 62.5 28.5t23.5 75.5t-23.5 75.5t-62.5 28.5q-40 0 -63.5 -28.5t-23.5 -75.5t23.5 -75.5t63.5 -28.5z" />
<glyph unicode="q" horiz-adv-x="362" d="M263 300h52v-400h-60v142q-38 -47 -99 -47q-59 0 -95 42.5t-36 112.5q0 69 36.5 112t94.5 43q67 0 103 -51zM172 46q40 0 63.5 28.5t23.5 75.5t-23.5 75.5t-63.5 28.5q-39 0 -62.5 -28.5t-23.5 -75.5t23.5 -75.5t62.5 -28.5z" />
<glyph unicode="r" horiz-adv-x="241" d="M208 305q11 0 23 -3v-57q-26 2 -40 2q-37 0 -60.5 -21.5t-23.5 -57.5v-168h-60v300h52l4 -48q36 53 105 53z" />
<glyph unicode="s" horiz-adv-x="288" d="M146 -5q-79 0 -130 46l33 43q39 -37 98 -37q62 0 62 35q0 15 -15 24t-56 19q-58 14 -83.5 35t-25.5 56q0 40 32.5 64.5t85.5 24.5q63 0 114 -37l-34 -45q-37 31 -83 31q-26 0 -41.5 -9t-15.5 -25q0 -14 14.5 -23t52.5 -19q62 -16 87.5 -37t25.5 -56q0 -41 -33 -65.5 t-88 -24.5z" />
<glyph unicode="t" horiz-adv-x="248" d="M224 249h-92v-158q0 -22 10 -31t33 -9q25 0 49 6v-55q-29 -7 -61 -7q-91 0 -91 84v170h-59v51h59l8 80h52v-80h92v-51z" />
<glyph unicode="u" d="M253 300h60v-300h-52l-4 47q-37 -52 -106 -52q-48 0 -78.5 32t-30.5 83v190h60v-174q0 -38 17.5 -59t48.5 -21q36 0 60.5 23t24.5 58v173z" />
<glyph unicode="v" horiz-adv-x="324" d="M252 300h64l-119 -300h-70l-118 300h66l89 -239z" />
<glyph unicode="w" horiz-adv-x="474" d="M401 300h59l-91 -300h-66l-66 220l-65 -220h-66l-92 300h62l65 -232l68 232h58l68 -232z" />
<glyph unicode="x" horiz-adv-x="331" d="M318 0h-72l-81 112l-81 -112h-71l114 153l-108 147h71l77 -105l78 105h68l-108 -147z" />
<glyph unicode="y" horiz-adv-x="328" d="M257 300h64l-100 -296q-19 -57 -45 -83t-64 -26t-61.5 23.5t-23.5 62.5q0 41 30 71h43l-97 248h65l88 -248h24zM113 -55q28 0 42 41l6 18h-74q-7 -10 -7 -24q0 -16 9 -25.5t24 -9.5z" />
<glyph unicode="z" horiz-adv-x="296" d="M95 51h181v-51h-256v49l177 200h-168v51h243v-49z" />
<glyph unicode="{" horiz-adv-x="236" d="M131 234q0 -50 -33 -64q33 -14 33 -64v-97q0 -19 19 -19h46v-50h-58q-64 0 -64 64v100q0 41 -28 41h-16v50h16q28 0 28 41v100q0 64 64 64h58v-50h-46q-19 0 -19 -19v-97z" />
<glyph unicode="|" horiz-adv-x="171" d="M57 -60v460h57v-460h-57z" />
<glyph unicode="}" horiz-adv-x="230" d="M174 195h16v-50h-16q-28 0 -28 -41v-100q0 -64 -64 -64h-58v50h46q19 0 19 19v97q0 50 33 64q-33 14 -33 64v97q0 19 -19 19h-46v50h58q64 0 64 -64v-100q0 -41 28 -41z" />
<glyph unicode="~" d="M68 149l-37 29q37 58 88 58q29 0 65 -21t57 -21q28 0 51 38l37 -29q-34 -59 -88 -59q-29 0 -65 21t-57 21q-28 0 -51 -37z" />
<glyph unicode="&#xa2;" horiz-adv-x="328" d="M192 88q44 8 62 55l55 -17q-11 -39 -42.5 -62.5t-74.5 -27.5v-36h-40v36q-57 8 -92 49.5t-35 104.5t35 104.5t92 49.5v36h40v-36q43 -4 74.5 -27.5t42.5 -62.5l-55 -18q-18 48 -62 56v-204zM84 190q0 -40 18 -67t50 -34v202q-32 -7 -50 -34t-18 -67z" />
<glyph unicode="&#xa3;" d="M283 93l55 -8q-4 -90 -79 -90q-45 0 -108 48q-28 -48 -76 -48q-30 0 -48.5 17.5t-18.5 45.5q0 30 20 47t52 17q20 0 38 -6q-3 26 -15 55h-72v38h52q-20 38 -20 72q0 48 33.5 76t89.5 28q53 0 86 -27.5t40 -73.5l-55 -15q-5 32 -23.5 49t-48.5 17q-28 0 -46 -15.5 t-18 -41.5q0 -25 22 -69h99v-38h-83q11 -31 11 -57q0 -9 -2 -25q5 -3 17 -11.5t18 -12t15.5 -9t17 -7.5t15.5 -2q29 0 32 46zM76 37q28 0 38 33q-19 11 -36 11q-29 0 -29 -23q0 -21 27 -21z" />
<glyph unicode="&#xa5;" horiz-adv-x="378" d="M367 380l-126 -193h58v-38h-82v-42h82v-38h-82v-69h-63v69h-74v38h74v42h-74v38h50l-126 193h72l110 -171l109 171h72z" />
<glyph unicode="&#xa8;" horiz-adv-x="160" d="M16 342v60h65v-60h-65zM119 342v60h65v-60h-65z" />
<glyph unicode="&#xa9;" horiz-adv-x="446" d="M223 -5q-85 0 -140 55t-55 140t55 140t140 55t140 -55t55 -140t-55 -140t-140 -55zM223 32q68 0 112 44.5t44 113.5t-44 113.5t-112 44.5t-112.5 -44.5t-44.5 -113.5t44.5 -113.5t112.5 -44.5zM226 84q-46 0 -74.5 29.5t-28.5 76.5t28.5 76.5t74.5 29.5q33 0 57.5 -16.5 t33.5 -45.5l-47 -17q-13 33 -44 33q-24 0 -37.5 -16t-13.5 -44t13.5 -44t37.5 -16q31 0 44 33l47 -17q-9 -29 -33.5 -45.5t-57.5 -16.5z" />
<glyph unicode="&#xab;" horiz-adv-x="338" d="M35 140v60l123 86v-65l-71 -50l71 -50v-67zM293 286v-65l-71 -50l71 -50v-67l-123 86v60z" />
<glyph unicode="&#xad;" horiz-adv-x="244" d="M35 141v58h174v-58h-174z" />
<glyph unicode="&#xae;" horiz-adv-x="276" d="M138 385q44 0 72 -28.5t28 -71.5t-28 -71.5t-72 -28.5t-72 28.5t-28 71.5t28 71.5t72 28.5zM138 210q32 0 53.5 21t21.5 54t-21.5 54t-53.5 21t-53 -21t-21 -54t21 -54t53 -21zM177 265q0 -5 5 -5h1v-25h-13q-21 0 -21 21v5q0 8 -8 8h-17v-34h-27v102h47q16 0 26.5 -9 t10.5 -23q0 -18 -14 -24q10 -3 10 -15v-1zM141 311h-17v-17h17q12 0 12 9q0 8 -12 8z" />
<glyph unicode="&#xb4;" horiz-adv-x="160" d="M81 328l30 73h72l-59 -73h-43z" />
<glyph unicode="&#xb8;" horiz-adv-x="160" d="M124 -21q22 0 36 -11.5t14 -30.5q0 -21 -19 -34t-50 -13q-37 0 -65 20l19 30q23 -17 46 -17q27 0 27 15q0 13 -20 13q-11 0 -21 -5l-27 15l24 42h40l-15 -25q4 1 11 1z" />
<glyph unicode="&#xbb;" horiz-adv-x="338" d="M45 219v67l123 -86v-60l-123 -86v65l71 50zM180 286l123 -86v-60l-123 -86v65l71 50l-71 50v67z" />
<glyph unicode="&#x2c6;" horiz-adv-x="160" d="M192 328h-54l-37 38l-37 -38h-53l59 73h63z" />
<glyph unicode="&#x2da;" horiz-adv-x="160" d="M100 328q-29 0 -48 19t-19 47q0 29 19 47.5t48 18.5t48 -18.5t19 -47.5q0 -28 -19 -47t-48 -19zM100 365q13 0 21 8t8 21t-8 21t-21 8t-21 -8t-8 -21t8 -21t21 -8z" />
<glyph unicode="&#x2dc;" horiz-adv-x="160" d="M195 384q-18 -49 -60 -49q-17 0 -37 12.5t-28 12.5q-16 0 -26 -24l-36 20q16 48 59 48q17 0 37 -12.5t28 -12.5q16 0 26 24z" />
<glyph unicode="&#x401;" horiz-adv-x="344" d="M169 482v-60h-65v60h65zM272 482v-60h-65v60h65zM120 57h204v-57h-267v380h262v-57h-199v-100h154v-56h-154v-110z" />
<glyph unicode="&#x404;" horiz-adv-x="387" d="M208 50q78 0 103 77l58 -21q-17 -52 -59.5 -81.5t-101.5 -29.5q-82 0 -131 53t-49 142q0 86 50 140.5t130 54.5q60 0 102 -28.5t59 -82.5l-58 -21q-25 77 -103 77q-46 0 -76.5 -29t-38.5 -79h153v-54h-154q5 -56 36 -87t80 -31z" />
<glyph unicode="&#x406;" horiz-adv-x="177" d="M57 0v380h63v-380h-63z" />
<glyph unicode="&#x407;" horiz-adv-x="177" d="M5 422v60h65v-60h-65zM108 422v60h65v-60h-65zM57 0v380h63v-380h-63z" />
<glyph unicode="&#x40e;" horiz-adv-x="382" d="M187 408q-39 0 -63 19t-28 52l47 8q5 -39 44 -39t44 39l47 -8q-4 -33 -28 -52t-63 -19zM298 380h67l-106 -289q-35 -96 -114 -96q-43 0 -69 25.5t-26 66.5q0 50 37 78h41l-119 215h71l113 -215h31zM147 48q34 0 52 46l8 23h-88q-11 -13 -11 -29q0 -19 10.5 -29.5 t28.5 -10.5z" />
<glyph unicode="&#x410;" horiz-adv-x="397" d="M323 0l-34 88h-182l-34 -88h-66l153 380h77l153 -380h-67zM129 144h138l-69 178z" />
<glyph unicode="&#x411;" horiz-adv-x="377" d="M219 231q62 0 98 -31t36 -84t-36 -84.5t-98 -31.5h-162v380h265v-56h-202v-93h99zM211 54q77 0 77 62q0 63 -77 63h-91v-125h91z" />
<glyph unicode="&#x412;" horiz-adv-x="381" d="M298 194q55 -25 55 -90q0 -48 -32.5 -76t-88.5 -28h-175v380h170q55 0 87 -27.5t32 -73.5q0 -56 -48 -85zM218 326h-100v-105h100q66 0 66 53q0 52 -66 52zM219 54q71 0 71 57t-71 57h-101v-114h101z" />
<glyph unicode="&#x413;" horiz-adv-x="322" d="M311 380v-58h-191v-322h-63v380h254z" />
<glyph unicode="&#x414;" horiz-adv-x="426" d="M407 58v-138h-61v80h-268v-80h-62v138h40q12 46 12 153v169h295v-322h44zM118 58h182v264h-170v-111q0 -84 -12 -153z" />
<glyph unicode="&#x415;" horiz-adv-x="344" d="M120 57h204v-57h-267v380h262v-57h-199v-100h154v-56h-154v-110z" />
<glyph unicode="&#x416;" horiz-adv-x="552" d="M514 58h13v-58h-32q-30 0 -46.5 17t-16.5 48v101h-124v-166h-63v166h-125v-101q0 -65 -63 -65h-31v58h12q19 0 19 19v146h72l-100 157h69l96 -157h51v157h63v-157h51l95 157h69l-99 -157h72v-146q0 -19 18 -19z" />
<glyph unicode="&#x417;" horiz-adv-x="348" d="M260 195q64 -22 64 -88q0 -51 -41 -81.5t-109 -30.5q-56 0 -97.5 25.5t-59.5 68.5l54 28q26 -66 104 -66q40 0 63.5 16.5t23.5 45.5q0 26 -20.5 40.5t-56.5 14.5h-50v53h51q28 0 45 13.5t17 36.5q0 27 -19.5 43t-54.5 16q-71 0 -97 -65l-57 22q18 45 59.5 71.5t95.5 26.5 q63 0 100 -29t37 -78q0 -58 -52 -83z" />
<glyph unicode="&#x418;" horiz-adv-x="432" d="M313 380h62v-380h-62v285l-195 -285h-61v380h63v-282z" />
<glyph unicode="&#x419;" horiz-adv-x="432" d="M216 408q-39 0 -63 19t-28 52l47 8q5 -39 44 -39t44 39l47 -8q-4 -33 -28 -52t-63 -19zM313 380h62v-380h-62v285l-195 -285h-61v380h63v-282z" />
<glyph unicode="&#x41a;" horiz-adv-x="392" d="M354 58h12v-58h-31q-63 0 -63 65v101h-152v-166h-63v380h63v-157h76l96 157h71l-102 -157h74v-146q0 -19 19 -19z" />
<glyph unicode="&#x41b;" horiz-adv-x="429" d="M372 380v-380h-64v322h-161v-118q0 -119 -17 -162t-70 -43q-21 0 -37 1v60h18q20 0 27.5 7t12 38t4.5 102v173h287z" />
<glyph unicode="&#x41c;" horiz-adv-x="538" d="M481 380v-380h-61v308l-116 -308h-69l-117 309v-309h-61v380h97l116 -306l115 306h96z" />
<glyph unicode="&#x41d;" horiz-adv-x="430" d="M310 380h63v-380h-63v166h-190v-166h-63v380h63v-156h190v156z" />
<glyph unicode="&#x41e;" horiz-adv-x="422" d="M211 -5q-83 0 -133 53.5t-50 141.5q0 86 51 140.5t132 54.5q83 0 133 -53t50 -142q0 -86 -51 -140.5t-132 -54.5zM211 51q53 0 85.5 37.5t32.5 101.5t-32.5 101.5t-85.5 37.5q-54 0 -86 -37.5t-32 -101.5t32 -101.5t86 -37.5z" />
<glyph unicode="&#x41f;" horiz-adv-x="430" d="M373 380v-380h-63v322h-190v-322h-63v380h316z" />
<glyph unicode="&#x420;" horiz-adv-x="370" d="M216 380q62 0 98.5 -31.5t36.5 -85.5q0 -55 -36.5 -86.5t-98.5 -31.5h-96v-145h-63v380h159zM208 199q79 0 79 63t-79 63h-88v-126h88z" />
<glyph unicode="&#x421;" horiz-adv-x="387" d="M208 -5q-81 0 -130.5 53.5t-49.5 141.5q0 86 50 140.5t130 54.5q59 0 101 -29t59 -83l-59 -20q-23 77 -101 77q-52 0 -83.5 -38t-31.5 -102q0 -65 31 -102.5t84 -37.5q78 0 101 77l59 -20q-17 -52 -59 -82t-101 -30z" />
<glyph unicode="&#x422;" horiz-adv-x="354" d="M344 380v-58h-135v-322h-64v322h-135v58h334z" />
<glyph unicode="&#x423;" horiz-adv-x="382" d="M298 380h67l-106 -289q-35 -96 -114 -96q-43 0 -69 25.5t-26 66.5q0 50 37 78h41l-119 215h71l113 -215h31zM147 48q34 0 52 46l8 23h-88q-11 -13 -11 -29q0 -19 10.5 -29.5t28.5 -10.5z" />
<glyph unicode="&#x424;" horiz-adv-x="491" d="M299 345q80 0 124 -40.5t44 -109.5q0 -67 -44.5 -108.5t-123.5 -41.5h-22v-51h-63v51h-23q-79 0 -123 40.5t-44 109.5q0 67 44.5 108.5t122.5 41.5h23v41h63v-41h22zM193 99h21v192h-21q-50 0 -77.5 -25t-27.5 -71q0 -96 105 -96zM298 99q51 0 78.5 25t27.5 71 q0 96 -106 96h-21v-192h21z" />
<glyph unicode="&#x425;" horiz-adv-x="378" d="M369 0h-74l-107 150l-106 -150h-73l142 194l-133 186h74l98 -139l99 139h71l-132 -184z" />
<glyph unicode="&#x426;" horiz-adv-x="429" d="M365 58h44v-138h-60v80h-292v380h63v-322h182v322h63v-322z" />
<glyph unicode="&#x427;" horiz-adv-x="396" d="M275 380h64v-380h-64v150h-106q-133 0 -133 118v112h63v-109q0 -64 75 -64h101v173z" />
<glyph unicode="&#x428;" horiz-adv-x="599" d="M479 380h62v-380h-484v380h63v-322h147v322h64v-322h148v322z" />
<glyph unicode="&#x429;" horiz-adv-x="605" d="M586 58v-138h-61v80h-468v380h63v-322h147v322h64v-322h148v322h62v-322h45z" />
<glyph unicode="&#x42a;" horiz-adv-x="428" d="M269 235q63 0 99.5 -31.5t36.5 -86.5q0 -54 -36.5 -85.5t-99.5 -31.5h-160v322h-99v58h162v-145h97zM263 55q78 0 78 63t-78 63h-91v-126h91z" />
<glyph unicode="&#x42b;" horiz-adv-x="534" d="M217 235q63 0 99.5 -31.5t36.5 -86.5q0 -54 -36.5 -85.5t-99.5 -31.5h-160v380h63v-145h97zM414 380h63v-380h-63v380zM211 55q78 0 78 63t-78 63h-91v-126h91z" />
<glyph unicode="&#x42c;" horiz-adv-x="376" d="M217 235q63 0 99.5 -31.5t36.5 -86.5q0 -54 -36.5 -85.5t-99.5 -31.5h-160v380h63v-145h97zM211 55q78 0 78 63t-78 63h-91v-126h91z" />
<glyph unicode="&#x42d;" horiz-adv-x="383" d="M175 385q82 0 131 -53t49 -142q0 -86 -50 -140.5t-130 -54.5q-58 0 -101 30t-60 81l58 21q23 -77 102 -77q49 0 80.5 31.5t36.5 86.5h-154v54h153q-7 51 -38 79.5t-78 28.5q-79 0 -102 -77l-58 21q18 53 61 82t100 29z" />
<glyph unicode="&#x42e;" horiz-adv-x="575" d="M370 385q80 0 128.5 -53.5t48.5 -141.5q0 -86 -49 -140.5t-128 -54.5q-75 0 -122 46.5t-54 124.5h-74v-166h-63v380h63v-156h75q10 73 57.5 117t117.5 44zM370 50q52 0 82 38t30 102t-30 102t-82 38t-82 -38t-30 -102t30 -102t82 -38z" />
<glyph unicode="&#x42f;" horiz-adv-x="391" d="M334 380v-380h-63v147h-154v-82q0 -31 -16.5 -48t-46.5 -17h-32v58h13q19 0 19 19v103h52q-64 26 -64 91q0 50 36 79.5t97 29.5h159zM183 325q-79 0 -79 -62q0 -63 79 -63h88v125h-88z" />
<glyph unicode="&#x430;" horiz-adv-x="322" d="M291 52h11v-52q-6 -2 -21 -2q-28 0 -41.5 11t-16.5 36q-35 -50 -105 -50q-44 0 -71 24.5t-27 64.5q0 26 11 44.5t32 29t40 15.5t46 9q38 5 52.5 11t14.5 22q0 18 -17.5 29t-45.5 11q-52 0 -90 -40l-37 39q54 51 130 51q54 0 85 -26.5t31 -72.5v-135q0 -19 19 -19zM128 44 q35 0 60.5 21t25.5 49v39q-11 -7 -58 -15q-19 -3 -29 -5t-23 -7.5t-19 -15t-6 -23.5q0 -43 49 -43z" />
<glyph unicode="&#x431;" horiz-adv-x="343" d="M321 134q1 -61 -40 -100t-105 -39q-67 0 -107 46.5t-40 125.5q0 87 32.5 134t101.5 62l71 15q16 3 19 20l2 9l57 -11l-1 -9q-4 -48 -58 -62l-88 -18q-75 -16 -82 -86q34 48 109 48q56 0 92.5 -38t36.5 -97zM176 46q38 0 60.5 24t22.5 63q0 41 -22.5 65t-60.5 24t-61 -23 t-23 -63t23.5 -65t60.5 -25z" />
<glyph unicode="&#x432;" horiz-adv-x="323" d="M245 154q51 -19 51 -73q0 -39 -27.5 -60t-76.5 -21h-145v300h134q107 0 107 -78q0 -49 -43 -68zM104 253v-77h77q48 0 48 39q0 38 -45 38h-80zM186 48q23 0 36.5 11t13.5 30q0 20 -14 31t-39 11h-79v-83h82z" />
<glyph unicode="&#x433;" horiz-adv-x="273" d="M263 300v-56h-156v-244h-60v300h216z" />
<glyph unicode="&#x434;" horiz-adv-x="366" d="M307 54h40v-124h-57v70h-216v-70h-57v124h35q9 36 9 121v125h246v-246zM110 53h138v194h-129v-75q0 -74 -9 -119z" />
<glyph unicode="&#x435;" horiz-adv-x="341" d="M85 131q5 -40 29.5 -62.5t63.5 -22.5q59 0 89 39l41 -36q-45 -54 -129 -54q-73 0 -113.5 43t-40.5 112t41 112t108 43q65 0 104.5 -42.5t39.5 -112.5q0 -12 -2 -19h-231zM174 255q-73 0 -88 -78h171q-6 37 -28 57.5t-55 20.5z" />
<glyph unicode="&#x436;" horiz-adv-x="475" d="M439 53h12v-53h-28q-57 0 -57 56v69h-99v-125h-60v125h-98v-69q0 -56 -57 -56h-28v53h11q15 0 15 15v109h54l-77 123h64l72 -120h44v220h60v-220h44l73 120h64l-77 -123h53v-109q0 -15 15 -15z" />
<glyph unicode="&#x437;" horiz-adv-x="283" d="M215 155q52 -17 52 -71q0 -40 -35.5 -64.5t-92.5 -24.5q-46 0 -80 21t-49 59l50 22q23 -52 80 -52q30 0 47.5 11.5t17.5 31.5q0 41 -59 41h-38v47h36q50 0 50 39q0 41 -53 41q-52 0 -72 -48l-49 26q34 71 123 71q49 0 79 -23.5t31 -62.5q0 -44 -38 -64z" />
<glyph unicode="&#x438;" horiz-adv-x="361" d="M252 300h62v-300h-59v218l-147 -218h-61v300h59v-216z" />
<glyph unicode="&#x439;" horiz-adv-x="361" d="M180 328q-39 0 -63 19t-28 52l47 8q5 -39 44 -39t44 39l47 -8q-4 -33 -28 -52t-63 -19zM252 300h62v-300h-59v218l-147 -218h-61v300h59v-216z" />
<glyph unicode="&#x43a;" horiz-adv-x="331" d="M297 53h11v-53h-27q-58 0 -58 56v69h-116v-125h-60v400h60v-219h61l71 119h64l-76 -122h55v-110q0 -15 15 -15z" />
<glyph unicode="&#x43b;" horiz-adv-x="353" d="M306 300v-300h-60v246h-124v-108q0 -79 -18.5 -109.5t-62.5 -30.5q-14 0 -28 2v55h16q21 0 27.5 15t6.5 75v155h243z" />
<glyph unicode="&#x43c;" horiz-adv-x="448" d="M401 300v-300h-58v237l-87 -237h-64l-87 237v-237h-58v300h93l85 -233l85 233h91z" />
<glyph unicode="&#x43d;" d="M253 300h60v-300h-60v125h-146v-125h-60v300h60v-119h146v119z" />
<glyph unicode="&#x43e;" horiz-adv-x="354" d="M177 -5q-69 0 -110.5 42.5t-41.5 112.5q0 69 42 112t110 43q69 0 110.5 -42.5t41.5 -112.5q0 -69 -42 -112t-110 -43zM177 46q41 0 66 28.5t25 75.5t-25 75.5t-66 28.5t-66 -28.5t-25 -75.5t25 -75.5t66 -28.5z" />
<glyph unicode="&#x43f;" d="M313 300v-300h-60v246h-146v-246h-60v300h266z" />
<glyph unicode="&#x440;" horiz-adv-x="362" d="M206 305q59 0 95 -42.5t36 -112.5q0 -69 -36.5 -112t-94.5 -43q-63 0 -99 45v-140h-60v400h52l4 -48q37 53 103 53zM190 46q39 0 62.5 28.5t23.5 75.5t-23.5 75.5t-62.5 28.5q-40 0 -63.5 -28.5t-23.5 -75.5t23.5 -75.5t63.5 -28.5z" />
<glyph unicode="&#x441;" horiz-adv-x="326" d="M175 -5q-67 0 -108.5 43t-41.5 112t41.5 112t108.5 43q49 0 85 -24t49 -66l-57 -18q-21 57 -77 57q-41 0 -65 -28.5t-24 -75.5t24 -75.5t65 -28.5q57 0 77 57l57 -18q-13 -42 -49 -66t-85 -24z" />
<glyph unicode="&#x442;" horiz-adv-x="296" d="M286 300v-54h-108v-246h-60v246h-108v54h276z" />
<glyph unicode="&#x443;" horiz-adv-x="328" d="M257 300h64l-100 -296q-19 -57 -45 -83t-64 -26t-61.5 23.5t-23.5 62.5q0 41 30 71h43l-97 248h65l88 -248h24zM113 -55q28 0 42 41l6 18h-74q-7 -10 -7 -24q0 -16 9 -25.5t24 -9.5z" />
<glyph unicode="&#x444;" horiz-adv-x="516" d="M373 303q54 0 86.5 -41.5t32.5 -111.5q0 -68 -33.5 -110.5t-85.5 -42.5q-55 0 -85 40v-137h-60v138q-30 -41 -84 -41t-86.5 41.5t-32.5 111.5q0 68 33 110.5t86 42.5q55 0 84 -38v135h60v-138q30 41 85 41zM159 46q33 0 52.5 28.5t19.5 75.5t-19.5 75.5t-52.5 28.5 q-34 0 -53.5 -28.5t-19.5 -75.5t19.5 -75.5t53.5 -28.5zM358 46q33 0 53 28.5t20 75.5t-20 75.5t-53 28.5q-34 0 -53.5 -28.5t-19.5 -75.5t19.5 -75.5t53.5 -28.5z" />
<glyph unicode="&#x445;" horiz-adv-x="331" d="M318 0h-72l-81 112l-81 -112h-71l114 153l-108 147h71l77 -105l78 105h68l-108 -147z" />
<glyph unicode="&#x446;" horiz-adv-x="367" d="M349 54v-124h-57v70h-245v300h60v-246h142v246h60v-246h40z" />
<glyph unicode="&#x447;" horiz-adv-x="330" d="M223 300h60v-300h-60v112h-74q-58 0 -89.5 28t-31.5 77v83h60v-83q0 -26 14 -37.5t47 -11.5h74v132z" />
<glyph unicode="&#x448;" horiz-adv-x="502" d="M395 300h60v-300h-408v300h60v-246h114v246h60v-246h114v246z" />
<glyph unicode="&#x449;" horiz-adv-x="513" d="M494 54v-124h-57v70h-390v300h60v-246h114v246h60v-246h114v246h60v-246h39z" />
<glyph unicode="&#x44a;" horiz-adv-x="361" d="M234 187q50 0 79.5 -25t29.5 -68t-29.5 -68.5t-79.5 -25.5h-142v245h-82v55h142v-113h82zM228 50q54 0 54 44t-54 44h-76v-88h76z" />
<glyph unicode="&#x44b;" horiz-adv-x="453" d="M189 187q50 0 79.5 -25t29.5 -68t-29.5 -68.5t-79.5 -25.5h-142v300h60v-113h82zM346 300h60v-300h-60v300zM183 50q54 0 54 44t-54 44h-76v-88h76z" />
<glyph unicode="&#x44c;" horiz-adv-x="316" d="M189 187q50 0 79.5 -25t29.5 -68t-29.5 -68.5t-79.5 -25.5h-142v300h60v-113h82zM183 50q54 0 54 44t-54 44h-76v-88h76z" />
<glyph unicode="&#x44d;" horiz-adv-x="326" d="M152 305q66 0 107.5 -43t41.5 -112t-41.5 -112t-107.5 -43q-49 0 -85.5 23.5t-49.5 64.5l54 18q21 -55 80 -55q36 0 60 22.5t30 60.5h-128v48h127q-7 36 -30.5 56.5t-58.5 20.5q-58 0 -81 -55l-53 17q14 41 50.5 65t84.5 24z" />
<glyph unicode="&#x44e;" horiz-adv-x="486" d="M314 305q67 0 107 -42.5t40 -112.5q0 -69 -41 -112t-106 -43q-61 0 -99.5 35t-46.5 95h-61v-125h-60v300h60v-119h62q9 56 48 90t97 34zM314 46q39 0 62 28t23 76t-23 76t-62 28q-40 0 -63.5 -28.5t-23.5 -75.5t23.5 -75.5t63.5 -28.5z" />
<glyph unicode="&#x44f;" horiz-adv-x="332" d="M285 300v-300h-60v112h-117v-56q0 -56 -58 -56h-27v53h11q15 0 15 15v71h48q-26 9 -42.5 29t-16.5 45q0 39 28 63t75 24h144zM155 252q-27 0 -42 -12.5t-15 -33.5t17 -34t45 -13h65v93h-70z" />
<glyph unicode="&#x451;" horiz-adv-x="341" d="M152 402v-60h-65v60h65zM255 402v-60h-65v60h65zM85 131q5 -40 29.5 -62.5t63.5 -22.5q59 0 89 39l41 -36q-45 -54 -129 -54q-73 0 -113.5 43t-40.5 112t41 112t108 43q65 0 104.5 -42.5t39.5 -112.5q0 -12 -2 -19h-231zM174 255q-73 0 -88 -78h171q-6 37 -28 57.5 t-55 20.5z" />
<glyph unicode="&#x454;" horiz-adv-x="326" d="M175 46q59 0 80 56l55 -19q-13 -42 -49.5 -65t-85.5 -23q-67 0 -108.5 43t-41.5 112t41.5 112t108.5 43q49 0 85.5 -23t49.5 -65l-55 -19q-22 56 -80 56q-36 0 -59 -20.5t-30 -56.5h127v-48h-128q5 -39 29 -61t61 -22z" />
<glyph unicode="&#x456;" horiz-adv-x="164" d="M49 342v60h66v-60h-66zM52 0v300h60v-300h-60z" />
<glyph unicode="&#x457;" horiz-adv-x="164" d="M-2 342v60h65v-60h-65zM101 342v60h65v-60h-65zM52 0v300h60v-300h-60z" />
<glyph unicode="&#x45e;" horiz-adv-x="328" d="M165 328q-39 0 -63 19t-28 52l47 8q5 -39 44 -39t44 39l47 -8q-4 -33 -28 -52t-63 -19zM257 300h64l-100 -296q-19 -57 -45 -83t-64 -26t-61.5 23.5t-23.5 62.5q0 41 30 71h43l-97 248h65l88 -248h24zM113 -55q28 0 42 41l6 18h-74q-7 -10 -7 -24q0 -16 9 -25.5t24 -9.5z " />
<glyph unicode="&#x490;" horiz-adv-x="322" d="M250 460h61v-138h-191v-322h-63v380h193v80z" />
<glyph unicode="&#x491;" horiz-adv-x="273" d="M206 380h57v-136h-156v-244h-60v300h159v80z" />
<glyph unicode="&#x2000;" horiz-adv-x="243" />
<glyph unicode="&#x2001;" horiz-adv-x="487" />
<glyph unicode="&#x2002;" horiz-adv-x="243" />
<glyph unicode="&#x2003;" horiz-adv-x="487" />
<glyph unicode="&#x2004;" horiz-adv-x="162" />
<glyph unicode="&#x2005;" horiz-adv-x="121" />
<glyph unicode="&#x2006;" horiz-adv-x="81" />
<glyph unicode="&#x2007;" horiz-adv-x="81" />
<glyph unicode="&#x2008;" horiz-adv-x="60" />
<glyph unicode="&#x2009;" horiz-adv-x="97" />
<glyph unicode="&#x200a;" horiz-adv-x="27" />
<glyph unicode="&#x2010;" horiz-adv-x="244" d="M35 141v58h174v-58h-174z" />
<glyph unicode="&#x2011;" horiz-adv-x="244" d="M35 141v58h174v-58h-174z" />
<glyph unicode="&#x2012;" horiz-adv-x="244" d="M35 141v58h174v-58h-174z" />
<glyph unicode="&#x2013;" horiz-adv-x="324" d="M35 141v58h254v-58h-254z" />
<glyph unicode="&#x2014;" horiz-adv-x="444" d="M35 141v58h374v-58h-374z" />
<glyph unicode="&#x2018;" horiz-adv-x="152" d="M111 400v-36h-10q-29 0 -29 -34v-2h39v-78h-78v72q0 78 67 78h11z" />
<glyph unicode="&#x2019;" horiz-adv-x="152" d="M41 230v36h9q30 0 30 34v2h-39v78h78v-72q0 -78 -67 -78h-11z" />
<glyph unicode="&#x201a;" horiz-adv-x="160" d="M41 -72v36h9q30 0 30 34v2h-39v78h78v-72q0 -78 -67 -78h-11z" />
<glyph unicode="&#x201c;" horiz-adv-x="270" d="M111 400v-36h-10q-29 0 -29 -34v-2h39v-78h-78v72q0 78 67 78h11zM229 400v-36h-9q-30 0 -30 -34v-2h39v-78h-78v72q0 78 67 78h11z" />
<glyph unicode="&#x201d;" horiz-adv-x="270" d="M41 230v36h9q30 0 30 34v2h-39v78h78v-72q0 -78 -67 -78h-11zM159 230v36h10q29 0 29 34v2h-39v78h78v-72q0 -78 -67 -78h-11z" />
<glyph unicode="&#x201e;" horiz-adv-x="278" d="M41 -72v36h9q30 0 30 34v2h-39v78h78v-72q0 -78 -67 -78h-11zM159 -72v36h10q29 0 29 34v2h-39v78h78v-72q0 -78 -67 -78h-11z" />
<glyph unicode="&#x2022;" horiz-adv-x="368" d="M184 90q-34 0 -57 23t-23 57t23 57t57 23t57 -23t23 -57t-23 -57t-57 -23z" />
<glyph unicode="&#x2026;" horiz-adv-x="448" d="M41 0v78h78v-78h-78zM185 0v78h78v-78h-78zM329 0v78h78v-78h-78z" />
<glyph unicode="&#x202f;" horiz-adv-x="97" />
<glyph unicode="&#x2039;" horiz-adv-x="203" d="M158 286v-65l-71 -50l71 -50v-67l-123 86v60z" />
<glyph unicode="&#x203a;" horiz-adv-x="203" d="M45 286l123 -86v-60l-123 -86v65l71 50l-71 50v67z" />
<glyph unicode="&#x205f;" horiz-adv-x="121" />
<glyph unicode="&#x20ac;" d="M196 47q54 0 77 62l56 -25q-39 -89 -133 -89q-57 0 -96 36.5t-51 99.5h-38v38h33q-1 7 -1 21t1 21h-33v38h38q12 63 51 99.5t96 36.5q94 0 133 -89l-56 -25q-23 62 -77 62q-65 0 -86 -84h109v-38h-114q-1 -7 -1 -21t1 -21h114v-38h-109q21 -84 86 -84z" />
<glyph unicode="&#x20bd;" horiz-adv-x="354" d="M195 152h-60v-41h139v-39h-139v-72h-61v72h-53v39h53v41h-53v39h53v189h121q61 0 96.5 -31t35.5 -83q0 -53 -35.5 -83.5t-96.5 -30.5zM179 327h-44v-136h44q85 0 85 68t-85 68z" />
<glyph unicode="&#x2122;" horiz-adv-x="497" d="M192 380v-42h-64v-148h-45v148h-64v42h173zM450 380v-190h-44v136l-50 -136h-44l-49 135v-135h-44v190h64l51 -136l51 136h65z" />
<glyph unicode="&#x25fc;" horiz-adv-x="300" d="M0 300h300v-300h-300v300z" />
</font>
</defs>
</svg>
